img image001 image001 image001 image001 image001 image001 image001 image001 image001 image001 image001 image001 image001 image001 image001

Planets Sun Sun Sun
Статистика раздачи
Автор: Nickolas3434 | Размер: 4.08 ГБ | Добавлен: 10 апр 2016
Раздают: 24    Качают: 47
Скачать торрент
Скачать торрент
Описание торрента

СообщениеДобавлено: 10 апр 2016 

Название: Гудини и Дойл
Оригинальное название: Houdini and Doyle
Год выхода: 2016
Жанр: драма, криминал, детектив
Режиссеры:
Стивен Хопкинс, Роберт Либерман, Эдвард Базалгетт, Джефф Ренфро
В ролях:
Стивен Мэнгэн, Майкл Уэстон, Ребекка Лиддьярд, Адам Нагаитис, Джерри-Джейн Пирс, Бо Мартин, Эндрю Бикнелл, Эделайо Эдедайо, Эндрю Бриджмонт и др.
Описание сериала:
Великий иллюзионист своего века Гарри Гудини и не менее великий детективный писатель сэр Артур Конан Дойл, достигнув богатства и высот популярности, решают стать коллегами по новому ремеслу. Оба заинтересованы в раскрытии преступлений, где замешаны сверхъестественные мотивы. И это при том что Дойл свято верит в мистику, а Гудини категорически её отрицает.

Страна: США
Производство: Big Talk Productions, ITV Studios, Shaftesbury, Shaw Media
Продолжительность: ~ 00:55:00
Перевод: Любительский (двухголосый) Sunshine Studio
Субтитры: Отсутствуют
Реклама: Присутствует
Файл
Формат: MKV
Качество: HDTV 720р
Видео: MPEG-4 AVC, ~ 2190 Кбит/с, 1280x720
Аудио: 48 kHz, AC3 Dolby Digital, 2/0 (L,R) ch, ~192 kbps
Релиз группа:

Формат : Matroska
Версия формата : Version 4 / Version 2
Размер файла : 807 Мбайт
Продолжительность : 44 м.
Общий поток : 2526 Кбит/сек
Дата кодирования : UTC 2016-03-25 20:48:48
Программа кодирования : mkvmerge v6.1.0 ('Old Devil') built on Mar 4 2013 09:10:42
Библиотека кодирования : libebml v1.3.0 + libmatroska v1.4.0
Видео
Идентификатор : 1
Формат : AVC
Формат/Информация : Advanced Video Codec
Профиль формата : High@L3.1
Параметр CABAC формата : Да
Параметр ReFrames формата : 4 кадра
Идентификатор кодека : V_MPEG4/ISO/AVC
Продолжительность : 44 м.
Битрейт : 2284 Кбит/сек
Ширина : 1280 пикселей
Высота : 720 пикселей
Соотношение сторон : 16:9
Режим частоты кадров : Постоянный
Частота кадров : 23,976 (24000/1001) кадра/сек
Частота кадров в оригинале : 23,976 (23976/1000) кадра/сек
Цветовое пространство : YUV
Субдискретизация насыщенности : 4:2:0
Битовая глубина : 8 бит
Тип развёртки : Прогрессивная
Бит/(Пиксели*Кадры) : 0.103
Размер потока : 730 Мбайт (90%)
Библиотека кодирования : x264 core 130 r2273 b3065e6
Настройки программы : cabac=1 / ref=1 / deblock=1:0:0 / analyse=0x3:0x113 / me=hex / subme=2 / psy=1 / psy_rd=1.00:0.10 / mixed_ref=0 / me_range=16 / chroma_me=1 / trellis=0 / 8x8dct=1 / cqm=0 / deadzone=21,11 / fast_pskip=1 / chroma_qp_offset=0 / threads=6 / lookahead_threads=2 / sliced_threads=0 / nr=0 / decimate=1 / interlaced=0 / bluray_compat=0 / constrained_intra=0 / bframes=3 / b_pyramid=2 / b_adapt=1 / b_bias=0 / direct=1 / weightb=1 / open_gop=0 / weightp=1 / keyint=250 / keyint_min=23 / scenecut=40 / intra_refresh=0 / rc_lookahead=10 / rc=crf / mbtree=1 / crf=17.0 / qcomp=0.60 / qpmin=0 / qpmax=69 / qpstep=4 / ip_ratio=1.40 / aq=1:1.00
Default : Да
Forced : Нет
Аудио
Идентификатор : 2
Формат : AC-3
Формат/Информация : Audio Coding 3
Расширение режима : CM (complete main)
Параметр Endianness формата : Big
Идентификатор кодека : A_AC3
Продолжительность : 44 м.
Вид битрейта : Постоянный
Битрейт : 192 Кбит/сек
Каналы : 2 канала
Расположение каналов : Front: L R
Частота : 48,0 КГц
Частота кадров : 31,250 кадров/сек (1536 spf)
Метод сжатия : С потерями
Размер потока : 61,3 Мбайт (8%)
Default : Да
Forced : Нет
Внимание! Раздача ведётся путём добавления новых серий; при каждом добавлении создаётся новый торрент. Чтобы начать докачку новой серии, пользователям необходимо сделать следующее:
(1) остановить скачивание,
(2) удалить старый торрент у себя из клиента (старые серии удалять не надо),
(3) скачать новый торрент и запустить его у себя в клиенте вместо старого, при этом указать клиенту путь в старую папку куда и должно происходить скачивание новых серий.
Ваш клиент при этом должен произвести хеширование (проверку) старой папки (если не производит сам - помогите ему сделать это), и будет докачивать только те серии которых у вас ещё нет. Старые серии при этом не удаляются, а продолжают раздаваться!
Eсли вы уже удалили старые серии, то предотвратить повторную закачку старых серий можно, отжав галочку в соответсвующих местах при запуске нового торрента. По возможности, желательно не удалять старые серии как можно дольше чтобы релизёр не столько продолжал раздавать старые серии, а смог сконцентрироваться на новых.



   Похожие торренты   Торрент   Размер 
В этой теме нет новых непрочитанных сообщений. Гудини и Дойл / Houdini and Doyle [01х01-03 из 10] (2016) HDTV 720р | Sunshine Studio

196 | 155

2.4 ГБ

В этой теме нет новых непрочитанных сообщений. Гудини и Дойл / Houdini and Doyle [01х01-04 из 10] (2016) HDTV 720р | Sunshine Studio

2 | 1

3.23 ГБ

В этой теме нет новых непрочитанных сообщений. Гудини и Дойл / Houdini and Doyle [01х01-03 из 10] (2016) HDTVRip | Sunshine Studio

222 | 199

1.42 ГБ

В этой теме нет новых непрочитанных сообщений. Гудини и Дойл / Houdini and Doyle [01х01-04 из 10] (2016) HDTVRip | Sunshine Studio

105 | 189

2.37 ГБ

В этой теме нет новых непрочитанных сообщений. Гудини и Дойл / Houdini and Doyle [01х01-04 из 10] (2016) HDTVRip | Sunshine Studio

0 | 5

1.9 ГБ

В этой теме нет новых непрочитанных сообщений. Гудини и Дойл / Houdini and Doyle [01х01 из 10] (2016) HDTVRip | NewStudio

942 | 53

536.19 МБ

В этой теме нет новых непрочитанных сообщений. Гудини и Дойл / Houdini and Doyle [S01] (2016) HDTV 1080p | NewStudio

16 | 27

23.18 ГБ




Вы не можете начинать темы
Вы не можете отвечать на сообщения
Вы не можете редактировать свои сообщения
Вы не можете удалять свои сообщения
Вы не можете добавлять вложения

Перейти:  
Для Мосгорсуда, Роскомнадзора и рекламодателей: mosgorsud-torrent[собачка]yandex.ru
 Вход
ppkBB3cker v.2 © 2008-2014 @ PPK
[ Time : 4.028s | 17 Queries | GZIP : Off ]

Торрент трекер RUTOR.IN, Не можете зайти на rutor.org? Какой новый адрес рутор? Какое зеркало рутор? Не работает rutor.org и зеркала? Тогда наш торрент специально для вас. Rutor.in неофициальное зеркало rutor. В случае если у Вас заблокирован rutor или вдруг Вы не можете на него зайти, то Вы без труда сможете скачать бесплатно и без рекламы последние новинки кино, игр, сериалов и прочего у нас, на Rutor.in. Не нужно использовать прокси, чтобы зайти на рутор, достаточно воспользоваться нашим ресурсом. Все новые фильмы, игры, сериалы, книги и музыка за 2013 и 2014 годы через торрент бесплатно. Скачивайте фильмы в хорошем качестве, игры для пк, xbox, playstation без регистрации. У нас вы найдете новые Зарубежные сериалы и Русские сериалы 2013, 2014, 2015 годов. Оставайтесь с нами, качайте любимые фильмы, игры, сериалы, книги и музыку.
cron