img image001 image001 image001 image001 image001 image001 image001 image001 image001 image001 image001 image001 image001 image001 image001

Planets Sun Sun Sun
Статистика раздачи
Автор: Nickolas3434 | Размер: 1.46 ГБ | Добавлен: 11 апр 2016
Раздают: 88    Качают: 5
Скачать торрент
Скачать торрент
Описание торрента

СообщениеДобавлено: 11 апр 2016 


Информация о фильме
Оригинальное название: Ложь во спасение
Год выпуска: 2015
Жанр: Детектив, Мелодрама
Режиссер: Андрей Верещагин
В ролях: Анастасия Панина, Владимир Жеребцов, Олег Каменщиков, Алексей Матошин, Любава Грешнова, Петр Рыков
О фильме:
У следователя Олега Субботина есть любимая жена, двое детишек, уютный дом. Кажется, что под всем этим благополучием - крепкий фундамент на века. Может быть, именно поэтому Олег больше внимания отдает работе - а когда выясняется, что следствию может быть полезен бывший муж Ирины, без колебаний помогает ему выйти на свободу по УДО. С этого момента жизнь Субботиных летит под откос. Кто-то очень умело манипулирует Олегом, заманивает в ловушку - и вот уже он оказывается в тюрьме по подозрению в убийстве. Только Ирина может спасти своего мужа, но беда в том, что она уже не знает, можно ли ему доверять...

Выпущено: Россия, ООО «Студия про 100 фильм»
Продолжительность: 4 х ~ 00:44:00
Перевод: Не требуется
Файл
Качество: WEB-DLRip
Видео: XviD, ~ 1000 Кбит/с, 656x368
Аудио: MP3, 2 ch, 128 Кбит/с
Полное имя : Lozh.Vo.Spasenie.2016.XviD.WEB-DLRip.by.GeneralFilmserija.01.avi
Формат : AVI
Формат/Информация : Audio Video Interleave
Размер файла : 372 Мбайт
Продолжительность : 45 м.
Общий поток : 1149 Кбит/сек
Программа кодирования : VirtualDubMod 1.5.10.3 | www.virtualdub-fr.org || (build 2550/release)
Библиотека кодирования : VirtualDubMod build 2550/release
Видео
Идентификатор : 0
Формат : MPEG-4 Visual
Профиль формата : Advanced Simple@L5
Параметр BVOP формата : 1
Параметр QPel формата : Нет
Параметр GMC формата : Без точки перехода
Параметр матрицы формата : Выборочная
Идентификатор кодека : XVID
Идентификатор кодека/Подсказка : XviD
Продолжительность : 45 м.
Битрейт : 1011 Кбит/сек
Ширина : 656 пикселей
Высота : 368 пикселей
Соотношение сторон : 16:9
Частота кадров : 25,000 кадров/сек
Цветовое пространство : YUV
Субдискретизация насыщенности : 4:2:0
Битовая глубина : 8 бит
Тип развёртки : Прогрессивная
Метод сжатия : С потерями
Бит/(Пиксели*Кадры) : 0.168
Размер потока : 328 Мбайт (88%)
Библиотека кодирования : XviD 73
Аудио
Идентификатор : 1
Формат : MPEG Audio
Версия формата : Version 1
Профиль формата : Layer 3
Идентификатор кодека : 55
Идентификатор кодека/Подсказка : MP3
Продолжительность : 45 м.
Вид битрейта : Постоянный
Битрейт : 128 Кбит/сек
Каналы : 2 канала
Частота : 44,1 КГц
Метод сжатия : С потерями
Размер потока : 41,5 Мбайт (11%)
Выравнивание : Разделение по промежуткам
Продолжительность промежутка : 40 мс. (1,00 видеокадр)
Время предзагрузки промежутка : 500 мс.
Библиотека кодирования : LAME3.99r
Настройки программы : -m s -V 4 -q 0 -lowpass 17 -b 128







Релиз от:
Исходник WEB-DL 1080p



   Похожие торренты   Торрент   Размер 
В этой теме нет новых непрочитанных сообщений. Ложь во спасение [01-04 из 04] (2015) WEB-DLRip от Files-x

36 | 8

2.33 ГБ

В этой теме нет новых непрочитанных сообщений. Ложь во спасение [01-04 из 04] (2015) WEB-DLRip-AVC от Files-x

79 | 4

2.26 ГБ

В этой теме нет новых непрочитанных сообщений. Ложь во спасение [01-04 из 04] (2015) DVB от Files-x

42 | 2

3.5 ГБ

В этой теме нет новых непрочитанных сообщений. Ложь во спасение [01 из 04] (2015) SATRip от Files-x

126 | 6

2.15 ГБ

В этой теме нет новых непрочитанных сообщений. Ложь во спасение [01 из 04] (2015) WEB-DL 720p от Files-x

28 | 1

1.98 ГБ

В этой теме нет новых непрочитанных сообщений. Ложь во спасение [01-04 из 04] (2015) WEB-DL 1080p от Files-x

19 | 2

3.62 ГБ

В этой теме нет новых непрочитанных сообщений. Ложь во спасение (Ленком) (2015) SATRip от Files-x

180 | 16

1.84 ГБ




Вы не можете начинать темы
Вы не можете отвечать на сообщения
Вы не можете редактировать свои сообщения
Вы не можете удалять свои сообщения
Вы не можете добавлять вложения

Перейти:  
Для Мосгорсуда, Роскомнадзора и рекламодателей: mosgorsud-torrent[собачка]yandex.ru
 Вход
ppkBB3cker v.2 © 2008-2014 @ PPK
[ Time : 0.074s | 14 Queries | GZIP : Off ]

Торрент трекер RUTOR.IN, Не можете зайти на rutor.org? Какой новый адрес рутор? Какое зеркало рутор? Не работает rutor.org и зеркала? Тогда наш торрент специально для вас. Rutor.in неофициальное зеркало rutor. В случае если у Вас заблокирован rutor или вдруг Вы не можете на него зайти, то Вы без труда сможете скачать бесплатно и без рекламы последние новинки кино, игр, сериалов и прочего у нас, на Rutor.in. Не нужно использовать прокси, чтобы зайти на рутор, достаточно воспользоваться нашим ресурсом. Все новые фильмы, игры, сериалы, книги и музыка за 2013 и 2014 годы через торрент бесплатно. Скачивайте фильмы в хорошем качестве, игры для пк, xbox, playstation без регистрации. У нас вы найдете новые Зарубежные сериалы и Русские сериалы 2013, 2014, 2015 годов. Оставайтесь с нами, качайте любимые фильмы, игры, сериалы, книги и музыку.