img image001 image001 image001 image001 image001 image001 image001 image001 image001 image001 image001 image001 image001 image001 image001

Planets Sun Sun Sun
Статистика раздачи
Автор: Nickolas3434 | Размер: 7.31 ГБ | Добавлен: 12 апр 2016
Раздают: 5    Качают: 0
Скачать торрент
Скачать торрент
Описание торрента

СообщениеДобавлено: 12 апр 2016 

Название: Скотт и Бейли
Оригинальное название: Scott & Bailey
Год выхода: 2013
Жанр: драма, детектив
Режиссер:
Мораг Фуллартон, Чина Му-Ен, Сара Пиа Андерсон
В ролях:
Сюранна Джонс, Лесли Шарп, Амелия Баллмор, Луиз Деламер, Николас Гливс, Бен Бэтт, Тони Питтс, Тони Муни, Делрой Браун и др.
Описание сериала:
Продолжение криминальной драмы, повествующей о личной и профессиональной жизни двух детективов манчестерской полиции, специализирующихся на делах об убийствах.

Страна: Великобритания
Продолжительность: ~ 00:45:00
Перевод: Любительский (многоголосый) RedDiamond Studio
Субтитры: Отсутствуют
Реклама: Отсутствует
Файл
Формат: MKV
Качество: HDTV 720р
Видео: AVC, 1280 x 720 (1.778) at 25.000 fps 2566 Кбит/сек, 0.111 bit/pixel
Аудио RUS: 48 kHz, AC3 Dolby Digital, 2/0 (L,R) ch, ~384 kbps
Аудио ENG: 48 kHz, AC3 Dolby Digital, 2/0 (L,R) ch, ~384 kbps
Релиз группа:

Format : Matroska
Format version : Version 4 / Version 2
File size : 1.09 GiB
Duration : 45mn 52s
Overall bit rate : 3 393 Kbps
Encoded date : UTC 2015-09-29 06:52:19
Writing application : mkvmerge v6.4.1 ('Omega Point') built on Sep 16 2013 22:05:10
Writing library : Larry Sanders
Video
ID : 1
Format : AVC
Format/Info : Advanced Video Codec
Format profile : High@L4.1
Format settings, CABAC : Yes
Format settings, ReFrames : 5 frames
Codec ID : V_MPEG4/ISO/AVC
Duration : 45mn 52s
Bit rate : 2 557 Kbps
Width : 1 280 pixels
Height : 720 pixels
Display aspect ratio : 16:9
Frame rate mode : Constant
Frame rate : 25.000 fps
Color space : YUV
Chroma subsampling : 4:2:0
Bit depth : 8 bits
Scan type : Progressive
Bits/(Pixel*Frame) : 0.111
Stream size : 839 MiB (75%)
Writing library : x264 core 130 r2273 b3065e6
Encoding settings : cabac=1 / ref=5 / deblock=1:0:0 / analyse=0x3:0x113 / me=umh / subme=8 / psy=1 / psy_rd=1.00:0.00 / mixed_ref=1 / me_range=16 / chroma_me=1 / trellis=1 / 8x8dct=1 / cqm=0 / deadzone=21,11 / fast_pskip=1 / chroma_qp_offset=-2 / threads=12 / lookahead_threads=2 / sliced_threads=0 / nr=0 / decimate=1 / interlaced=0 / bluray_compat=0 / constrained_intra=0 / bframes=3 / b_pyramid=2 / b_adapt=2 / b_bias=0 / direct=3 / weightb=1 / open_gop=0 / weightp=2 / keyint=250 / keyint_min=25 / scenecut=40 / intra_refresh=0 / rc_lookahead=50 / rc=crf / mbtree=1 / crf=18.0 / qcomp=0.60 / qpmin=0 / qpmax=69 / qpstep=4 / ip_ratio=1.40 / aq=1:1.00
Language : English
Default : Yes
Forced : No
Audio #1
ID : 2
Format : AC-3
Format/Info : Audio Coding 3
Mode extension : CM (complete main)
Format settings, Endianness : Big
Codec ID : A_AC3
Duration : 45mn 52s
Bit rate mode : Constant
Bit rate : 384 Kbps
Channel(s) : 2 channels
Channel positions : Front: L R
Sampling rate : 48.0 KHz
Compression mode : Lossy
Stream size : 126 MiB (11%)
Language : Russian
Default : Yes
Forced : No
Audio #2
ID : 3
Format : AC-3
Format/Info : Audio Coding 3
Mode extension : CM (complete main)
Format settings, Endianness : Big
Codec ID : A_AC3
Duration : 45mn 52s
Bit rate mode : Constant
Bit rate : 384 Kbps
Channel(s) : 2 channels
Channel positions : Front: L R
Sampling rate : 48.0 KHz
Compression mode : Lossy
Stream size : 126 MiB (11%)
Language : English
Default : No
Forced : No



   Похожие торренты   Торрент   Размер 
В этой теме нет новых непрочитанных сообщений. Скотт и Бейли / Scott & Bailey [S03] (2013) HDTVRip | RedDiamond Studio

2 | 2

6.07 ГБ

В этой теме нет новых непрочитанных сообщений. Скотт и Бейли / Scott & Bailey [S02] (2012) HDTVRip | Fox Crime

1 | 43

4.3 ГБ

В этой теме нет новых непрочитанных сообщений. Скотт и Бейли / Scott & Bailey [S01] (2011) HDTVRip | Fox Crime

5 | 1

3.22 ГБ

В этой теме нет новых непрочитанных сообщений. Скотт Пилигрим против всех / Scott Pilgrim vs. the World (2013) HDRip-AVC | D

297 | 12

745.86 МБ

В этой теме нет новых непрочитанных сообщений. Версаль / Versailles [01x01-04 из 10] (2015) HDTV 720p | RedDiamond Studio

278 | 46

5.65 ГБ

В этой теме нет новых непрочитанных сообщений. Версаль / Versailles [01x01-05 из 10] (2015) HDTV 720p | RedDiamond Studio

292 | 103

7.3 ГБ

В этой теме нет новых непрочитанных сообщений. Версаль / Versailles [01x01-06 из 10] (2015) HDTV 720p | RedDiamond Studio

67 | 74

8.82 ГБ




Вы не можете начинать темы
Вы не можете отвечать на сообщения
Вы не можете редактировать свои сообщения
Вы не можете удалять свои сообщения
Вы не можете добавлять вложения

Перейти:  
Для Мосгорсуда, Роскомнадзора и рекламодателей: mosgorsud-torrent[собачка]yandex.ru
 Вход
ppkBB3cker v.2 © 2008-2014 @ PPK
[ Time : 0.070s | 15 Queries | GZIP : Off ]

Торрент трекер RUTOR.IN, Не можете зайти на rutor.org? Какой новый адрес рутор? Какое зеркало рутор? Не работает rutor.org и зеркала? Тогда наш торрент специально для вас. Rutor.in неофициальное зеркало rutor. В случае если у Вас заблокирован rutor или вдруг Вы не можете на него зайти, то Вы без труда сможете скачать бесплатно и без рекламы последние новинки кино, игр, сериалов и прочего у нас, на Rutor.in. Не нужно использовать прокси, чтобы зайти на рутор, достаточно воспользоваться нашим ресурсом. Все новые фильмы, игры, сериалы, книги и музыка за 2013 и 2014 годы через торрент бесплатно. Скачивайте фильмы в хорошем качестве, игры для пк, xbox, playstation без регистрации. У нас вы найдете новые Зарубежные сериалы и Русские сериалы 2013, 2014, 2015 годов. Оставайтесь с нами, качайте любимые фильмы, игры, сериалы, книги и музыку.