img image001 image001 image001 image001 image001 image001 image001 image001 image001 image001 image001 image001 image001 image001 image001

Planets Sun Sun Sun
Статистика раздачи
Автор: Nickolas3434 | Размер: 21.97 ГБ | Добавлен: 17 апр 2016
Раздают: 7    Качают: 4
Скачать торрент
Скачать торрент
Описание торрента

СообщениеДобавлено: 17 апр 2016 


Агенты Щ.И.Т. / Agents of S.H.I.E.L.D.

Год выпуска: 2015-2016
Страна: США
Жанр: боевик, фантастика, драма
Продолжительность: ~ 00:42:00
Перевод: Профессиональный (дублированый) Невафильм
Режиссёры:
Винс Мисиано, Билл Джирхарт, Бобби Рот
В ролях:
Кларк Грегг (Фил Колсон), Минг-На Вен (Мелинда Мэй), Бретт Далтон (Грант Уорд), Хлоя Беннет (Дейзи «Скай» Джонсон), Йен де Кестекер (Лео Фитц), Элизабет Хенстридж (Джемма Симмонс), Ник Блад (Лэнс Хантер), Эдрианн Палики (Барбара «Бобби» Морс), Генри Симмонс (Альфонсо «Мак» Маккензи), Люк Митчелл (Линкольн Кэмпбелл)
Описание:
Действия сериала разворачиваются после событий фильма "Мстители". Фил Колсон возвращается в правоохранительную организацию под названием Щ.И.Т. Собрав небольшую команду профессионалов, он начинает работу над новыми делами, которые порой бывают очень странными. Новоиспечённой команде придётся не только сойтись в оперативной, а также исследовательской работе, но и сойтись характерами, чтобы дать отпор всем врагам организации Щ.И.Т.
Семпл
Качество: WEB-DL 1080p
Формат: MKV
Видео: 1920x1080 (16:9), H.264, ~5 000 Kbps, 23.976 fps
Аудио 1: AC3, 48.0 KHz, 2 ch, 192 kbps RUS
Аудио 2: AC3, 48.0 KHz, 6 ch, 384 kbps ENG
Субтитры: русские, английские
Работа со звуком - k-marat-s. Субтитры - Firefly2012, синхронизация - qqss44.

Код:
Общее
Формат                                   : Matroska
Версия формата                           : Version 4 / Version 2
Размер файла                             : 1,70 Гбайт
Продолжительность                        : 43 м.
Общий поток                              : 5644 Кбит/сек
Дата кодирования                         : UTC 2015-10-23 18:18:00
Программа кодирования                    : mkvmerge v7.1.0 ('Good Love') 64bit built on Jul 27 2014 13:06:55
Библиотека кодирования                   : libebml v1.3.0 + libmatroska v1.4.1
_STATISTICS_TAGS                         : BPS DURATION NUMBER_OF_FRAMES NUMBER_OF_BYTES
DURATION                                 : 00:43:03.392000000
NUMBER_OF_FRAMES                         : 80731
NUMBER_OF_BYTES                          : 62001408
Видео
Формат                                   : AVC
Формат/Информация                        : Advanced Video Codec
Профиль формата                          : High@L4.0
Параметр CABAC формата                   : Да
Параметр ReFrames формата                : 4 кадра
Идентификатор кодека                     : V_MPEG4/ISO/AVC
Продолжительность                        : 43 м.
Битрейт                                  : 4956 Кбит/сек
Ширина                                   : 1920 пикселей
Высота                                   : 1080 пикселей
Соотношение сторон                       : 16:9
Режим частоты кадров                     : Постоянный
Частота кадров                           : 23,976 кадра/сек
Цветовое пространство                    : YUV
Субдискретизация насыщенности            : 4:2:0
Битовая глубина                          : 8 бит
Тип развёртки                            : Прогрессивная
Бит/(Пиксели*Кадры)                      : 0.100
Размер потока                            : 1,49 Гбайт (88%)
Язык                                     : English
Default                                  : Да
Forced                                   : Нет
Основные цвета                           : BT.709
Характеристики трансфера                 : BT.709
Коэффициенты матрицы                     : BT.709
Аудио #1
Формат                                   : AC-3
Формат/Информация                        : Audio Coding 3
Расширение режима                        : CM (complete main)
Параметр Endianness формата              : Big
Идентификатор кодека                     : A_AC3
Продолжительность                        : 43 м.
Вид битрейта                             : Постоянный
Битрейт                                  : 192 Кбит/сек
Каналы                                   : 2 канала
Расположение каналов                     : Front: L R
Частота                                  : 48,0 КГц
Битовая глубина                          : 16 бит
Метод сжатия                             : С потерями
Размер потока                            : 59,1 Мбайт (3%)
Язык                                     : Russian
Default                                  : Да
Forced                                   : Нет
Аудио #2
Формат                                   : AC-3
Формат/Информация                        : Audio Coding 3
Расширение режима                        : CM (complete main)
Параметр Endianness формата              : Big
Идентификатор кодека                     : A_AC3
Продолжительность                        : 43 м.
Вид битрейта                             : Постоянный
Битрейт                                  : 384 Кбит/сек
Каналы                                   : 6 каналов
Расположение каналов                     : Front: L C R, Side: L R, LFE
Частота                                  : 48,0 КГц
Битовая глубина                          : 16 бит
Метод сжатия                             : С потерями
Размер потока                            : 118 Мбайт (7%)
Язык                                     : English
Default                                  : Нет
Forced                                   : Нет
Текст #1
Формат                                   : UTF-8
Идентификатор кодека                     : S_TEXT/UTF8
Идентификатор кодека/Информация          : UTF-8 Plain Text
Язык                                     : Russian
Default                                  : Нет
Forced                                   : Нет
Текст #2
Формат                                   : UTF-8
Идентификатор кодека                     : S_TEXT/UTF8
Идентификатор кодека/Информация          : UTF-8 Plain Text
Язык                                     : English
Default                                  : Нет
Forced                                   : Нет



   Похожие торренты   Торрент   Размер 
В этой теме нет новых непрочитанных сообщений. Агенты Щ.И.Т. / Marvel's Agents of S.H.I.E.L.D. [03x01-20 из 22] (2015) WEB-DL 1080p | Невафильм

2 | 17

33.57 ГБ

В этой теме нет новых непрочитанных сообщений. Агенты Щ.И.Т. / Marvel's Agents of S.H.I.E.L.D. [03x01-14 из 22] (2015) WEB-DL 1080p | Невафильм

7 | 1

23.58 ГБ

В этой теме нет новых непрочитанных сообщений. Агенты Щ.И.Т. / Marvel's Agents of S.H.I.E.L.D. [03x01-16 из 22] (2015) WEB-DL 1080p | Невафильм

8 | 15

26.97 ГБ

В этой теме нет новых непрочитанных сообщений. Агенты Щ.И.Т. / Marvel's Agents of S.H.I.E.L.D. [03x01-14 из 22] (2015) WEB-DL 1080p | Невафильм

7 | 2

23.58 ГБ

В этой теме нет новых непрочитанных сообщений. Агенты Щ.И.Т. / Marvel's Agents of S.H.I.E.L.D. [03x01-18 из 22] (2015) WEB-DL 1080p | Невафильм

8 | 8

30.32 ГБ

В этой теме нет новых непрочитанных сообщений. Агенты Щ.И.Т. / Marvel's Agents of S.H.I.E.L.D. [03x01 из 22] (2015) WEB-DL 720p | D | Невафильм

54 | 0

1.34 ГБ

В этой теме нет новых непрочитанных сообщений. Агенты Щ.И.Т. / Marvel's Agents of S.H.I.E.L.D. [03x01-10 из 22] (2015) WEB-DLRip от qqss44 | Невафильм

160 | 135

4.7 ГБ




Вы не можете начинать темы
Вы не можете отвечать на сообщения
Вы не можете редактировать свои сообщения
Вы не можете удалять свои сообщения
Вы не можете добавлять вложения

Перейти:  
Для Мосгорсуда, Роскомнадзора и рекламодателей: mosgorsud-torrent[собачка]yandex.ru
 Вход
ppkBB3cker v.2 © 2008-2014 @ PPK
[ Time : 0.547s | 16 Queries | GZIP : Off ]

Торрент трекер RUTOR.IN, Не можете зайти на rutor.org? Какой новый адрес рутор? Какое зеркало рутор? Не работает rutor.org и зеркала? Тогда наш торрент специально для вас. Rutor.in неофициальное зеркало rutor. В случае если у Вас заблокирован rutor или вдруг Вы не можете на него зайти, то Вы без труда сможете скачать бесплатно и без рекламы последние новинки кино, игр, сериалов и прочего у нас, на Rutor.in. Не нужно использовать прокси, чтобы зайти на рутор, достаточно воспользоваться нашим ресурсом. Все новые фильмы, игры, сериалы, книги и музыка за 2013 и 2014 годы через торрент бесплатно. Скачивайте фильмы в хорошем качестве, игры для пк, xbox, playstation без регистрации. У нас вы найдете новые Зарубежные сериалы и Русские сериалы 2013, 2014, 2015 годов. Оставайтесь с нами, качайте любимые фильмы, игры, сериалы, книги и музыку.