img image001 image001 image001 image001 image001 image001 image001 image001 image001 image001 image001 image001 image001 image001 image001

Planets Sun Sun Sun
Статистика раздачи
Автор: Nickolas3434 | Размер: 4.46 ГБ | Добавлен: 18 апр 2016
Раздают: 21    Качают: 3
Скачать торрент
Скачать торрент
Описание торрента

СообщениеДобавлено: 18 апр 2016 


Информация о фильме
Название: Гранчестер
Оригинальное название: Grantchester
Год выхода: 2016
Жанр: драма, детектив
Режиссер: Тим Файвелл, Гарри Брэдбир, Джилл Робертсон
В ролях: Джеймс Нортон, Робсон Грин, Морвен Кристи, Тесса Пик-Джонс, Аль Уивер, Кейси Эйнсуорт, Том Остин, Kevan Looseley, Фелина Рогган, Грегг Лоу
О фильме:
Действие происходит в 1953 году в живописной деревушке Гранчестер в Кембриджшире. Главный герой — Сидни Чемберс, харизматичный и очаровательный викарий, который начинает собственное расследование, когда один из его прихожан умирает при подозрительных обстоятельствах.

Страна: Великобритания
Продолжительность: ~00:45:00 серия
Перевод: Любительский двухголосый [Victory-Films]
Файл
Кодек: AVC
Качество: HDTVRip 720p
Видео: 1280 x 720, 2 293 Kbps, 25.000 fps
Звук: AC3, 192 Kbps, 2 channels

Релиз от: Victory-Films
General
Unique ID : 229763769386545812991801836787216481032 (0xACDAE471AF278DA5BB8911E4367CFB08)
Complete name : /home/roma/Відео/Гранчестер (Grantchester)/Гранчестер 2016 (2 сезон) -Stidio Victory-Films (720)/Grantchester.S02E01.720p.HDTV.x264-Studio Victory-Films.mkv
Format : Matroska
Format version : Version 4 / Version 2
File size : 810 MiB
Duration : 45mn 40s
Overall bit rate : 2 479 Kbps
Encoded date : UTC 2016-03-06 17:18:30
Writing application : mkvmerge v7.2.0 ('On Every Street') 64bit built on Sep 13 2014 15:52:10
Writing library : libebml v1.3.0 + libmatroska v1.4.1
Video
ID : 1
Format : AVC
Format/Info : Advanced Video Codec
Format profile : High@L4.1
Format settings, CABAC : Yes
Format settings, ReFrames : 5 frames
Codec ID : V_MPEG4/ISO/AVC
Duration : 45mn 31s
Bit rate : 2 293 Kbps
Width : 1 280 pixels
Height : 720 pixels
Display aspect ratio : 16:9
Frame rate mode : Constant
Frame rate : 25.000 fps
Color space : YUV
Chroma subsampling : 4:2:0
Bit depth : 8 bits
Scan type : Progressive
Bits/(Pixel*Frame) : 0.100
Stream size : 746 MiB (92%)
Writing library : x264 core 148 r2665 a01e339
Encoding settings : cabac=1 / ref=5 / deblock=1:0:0 / analyse=0x3:0x113 / me=umh / subme=8 / psy=1 / psy_rd=1.00:0.00 / mixed_ref=1 / me_range=16 / chroma_me=1 / trellis=1 / 8x8dct=1 / cqm=0 / deadzone=21,11 / fast_pskip=1 / chroma_qp_offset=-2 / threads=12 / lookahead_threads=2 / sliced_threads=0 / nr=0 / decimate=1 / interlaced=0 / bluray_compat=0 / constrained_intra=0 / bframes=3 / b_pyramid=2 / b_adapt=2 / b_bias=0 / direct=3 / weightb=1 / open_gop=0 / weightp=2 / keyint=250 / keyint_min=25 / scenecut=40 / intra_refresh=0 / rc_lookahead=50 / rc=crf / mbtree=1 / crf=18.0 / qcomp=0.60 / qpmin=0 / qpmax=69 / qpstep=4 / ip_ratio=1.40 / aq=1:1.00
Language : English
Default : Yes
Forced : No
Audio
ID : 2
Format : AC-3
Format/Info : Audio Coding 3
Mode extension : CM (complete main)
Format settings, Endianness : Big
Codec ID : A_AC3
Duration : 45mn 40s
Bit rate mode : Constant
Bit rate : 192 Kbps
Channel(s) : 2 channels
Channel positions : Front: L R
Sampling rate : 48.0 KHz
Frame rate : 31.250 fps (1536 spf)
Compression mode : Lossy
Stream size : 62.7 MiB (8%)
Language : Russian
Default : Yes
Forced : No



   Похожие торренты   Торрент   Размер 
В этой теме нет новых непрочитанных сообщений. Гранчестер / Grantchester [S02 + Рождественская серия] (2016) HDTVRip 720p от Studio Victory-Films | L2

13 | 9

4.78 ГБ

В этой теме нет новых непрочитанных сообщений. Гранчестер / Grantchester [02х01-02 из 06] (2016) HDTVRip | Victory-Films

24 | 45

1018.74 МБ

В этой теме нет новых непрочитанных сообщений. Гранчестер / Grantchester [02х01-05 из 06] (2016) HDTVRip | Victory-Films

6 | 0

2.25 ГБ

В этой теме нет новых непрочитанных сообщений. Гранчестер / Grantchester [02х01-03 из 06] (2016) HDTVRip | Victory-Films

332 | 35

1.39 ГБ

В этой теме нет новых непрочитанных сообщений. Гранчестер / Grantchester [02x01-03 из 06] (2016) HDTV 720p от Victory-Films | L2

31 | 28

2.31 ГБ

В этой теме нет новых непрочитанных сообщений. Гранчестер / Grantchester [02x01-05 из 06] (2016) HDTV 720p от Victory-Films | L2

1 | 0

3.72 ГБ

В этой теме нет новых непрочитанных сообщений. Гранчестер / Grantchester [02x01 из 6] (2016) HDTV 720p от Victory-Films | L2

81 | 13

809.73 МБ




Вы не можете начинать темы
Вы не можете отвечать на сообщения
Вы не можете редактировать свои сообщения
Вы не можете удалять свои сообщения
Вы не можете добавлять вложения

Перейти:  
Для Мосгорсуда, Роскомнадзора и рекламодателей: mosgorsud-torrent[собачка]yandex.ru
 Вход
ppkBB3cker v.2 © 2008-2014 @ PPK
[ Time : 0.036s | 15 Queries | GZIP : Off ]

cron