img image001 image001 image001 image001 image001 image001 image001 image001 image001 image001 image001 image001 image001 image001 image001

Planets Sun Sun Sun
Статистика раздачи
Автор: Nickolas3434 | Размер: 33.72 ГБ | Добавлен: 22 апр 2016
Раздают: 42    Качают: 28
Скачать торрент
Скачать торрент
Описание торрента

СообщениеДобавлено: 22 апр 2016 

Название: Реальные пацаны
Оригинальное название: Blue Mountain State
Год выхода: 2010 – 2011
Страна: США, Канада
Студия: Blue Mountain State Productions, Lionsgate Television, Varsity Pictures
Продолжительность: 39 x ~ 21:30 + 01:30:10
Жанр: комедия, спорт, ...
Режиссер: Дэрин Брукс, Алан Ричсон, Крис Романо, Эд Маринаро, Кваси Сонгуи, Омари Ньютон, Роб Рамсей, Джеймс Кейд, Карл Дорсин, Дениз Ричардс, ...
Перевод:
Любительский (многоголосый, закадровый) SkyeFilm
Профессиональный (многоголосный, закадровый) MTV (первый сезон)
Любительский (одноголосый, закадровый) Arkadiy
О фильме: Сериал рассказывает о трех первокурсниках, поступивших в университет, который уделяет большое внимание американскому футболу. Троица должна быстро адаптироваться к новой жизни, совмещая футбол, женщин, занятия и безостановочные гулянки…

Кодек: MPEG-4 AVC
Качество: BDRip 720p, WEB-DL 720p
Видео: 1280x720 , ~4000 kbps, 23,976 fps
Аудио #1: AC-3, 2 ch, 192 kbps (Rus) - SkyeFilm
Аудио #2: AC-3, 2 ch, 192 kbps (Rus) - MTV (первый сезон)
Аудио #3: AC-3, 2 ch, 192 kbps (Rus) - Arkadiy
Субтитры: Русские (форс.)
Штат Блу Маунтин: Восстание Тадлэнда / Blue Mountain State: The Rise of Thadland (2016) WEB-DL 1080p | L2, L1
Кодек: MPEG-4 AVC
Качество: WEB-DL 1080p
Видео: 1912x808 , ~4344 kbps, 23,976 fps
Аудио #1: AC-3, 2 ch, 192 kbps (Rus) - DVOL Parovoz Production
Аудио #2: AC-3, 2 ch, 224 kbps (Rus) - VO Arkadiy
Субтитры: Русские (форс.)


Общее
Уникальный идентификатор : 215227556248713473333653802510508474227 (0xA1EB51CD9D2607B3AAE2861B93D1BF73)
Полное имя : Blue Mountain State E01 S01 2010 BDRip 720p SkyeFilm MTV Arkadiy.mkv
Формат : Matroska
Версия формата : Version 2
Размер файла : 1,27 Гбайт
Продолжительность : 28 м.
Общий поток : 6358 Кбит/сек
Дата кодирования : UTC 2015-03-15 06:00:32
Программа кодирования : mkvmerge v4.0.0 ('The Stars were mine') сборка от Jun 6 2010 16:18:42
Библиотека кодирования : libebml v1.0.0 + libmatroska v1.0.0
Видео
Идентификатор : 1
Формат : AVC
Формат/Информация : Advanced Video Codec
Профиль формата : High@L4.1
Параметр CABAC формата : Да
Параметр ReFrames формата : 7 кадров
Идентификатор кодека : V_MPEG4/ISO/AVC
Продолжительность : 28 м.
Битрейт : 5782 Кбит/сек
Ширина : 1280 пикселей
Высота : 720 пикселей
Соотношение сторон : 16:9
Режим частоты кадров : Постоянный
Частота кадров : 23,976 кадра/сек
Цветовое пространство : YUV
Субдискретизация насыщенности : 4:2:0
Битовая глубина : 8 бит
Тип развёртки : Прогрессивная
Бит/(Пиксели*Кадры) : 0.262
Размер потока : 1,13 Гбайт (89%)
Библиотека кодирования : x264 core 105 r1732 2b04482
Настройки программы : cabac=1 / ref=7 / deblock=1:-2:-2 / analyse=0x3:0x113 / me=umh / subme=9 / psy=1 / psy_rd=1.04:0.02 / mixed_ref=1 / me_range=20 / chroma_me=1 / trellis=1 / 8x8dct=1 / cqm=0 / deadzone=21,11 / fast_pskip=0 / chroma_qp_offset=-3 / threads=6 / sliced_threads=0 / nr=0 / decimate=1 / interlaced=0 / constrained_intra=0 / bframes=4 / b_pyramid=2 / b_adapt=2 / b_bias=0 / direct=3 / weightb=1 / open_gop=0 / weightp=2 / keyint=250 / keyint_min=23 / scenecut=40 / intra_refresh=0 / rc_lookahead=40 / rc=2pass / mbtree=1 / bitrate=5782 / ratetol=1.0 / qcomp=0.60 / qpmin=10 / qpmax=51 / qpstep=4 / cplxblur=20.0 / qblur=0.5 / ip_ratio=1.40 / aq=1:1.20
Язык : English
Default : Нет
Forced : Нет
Аудио #1
Идентификатор : 2
Формат : AC-3
Формат/Информация : Audio Coding 3
Расширение режима : CM (complete main)
Параметр Endianness формата : Big
Идентификатор кодека : A_AC3
Продолжительность : 28 м.
Вид битрейта : Постоянный
Битрейт : 192 Кбит/сек
Каналы : 2 канала
Расположение каналов : Front: L R
Частота : 48,0 КГц
Метод сжатия : С потерями
Размер потока : 39,3 Мбайт (3%)
Заголовок : SkyeFilm.TV
Язык : Russian
Default : Нет
Forced : Нет
Аудио #2
Идентификатор : 3
Формат : AC-3
Формат/Информация : Audio Coding 3
Расширение режима : CM (complete main)
Параметр Endianness формата : Big
Идентификатор кодека : A_AC3
Продолжительность : 28 м.
Вид битрейта : Постоянный
Битрейт : 192 Кбит/сек
Каналы : 2 канала
Расположение каналов : Front: L R
Частота : 48,0 КГц
Метод сжатия : С потерями
Размер потока : 39,3 Мбайт (3%)
Заголовок : MTV
Язык : Russian
Default : Нет
Forced : Нет
Аудио #3
Идентификатор : 4
Формат : AC-3
Формат/Информация : Audio Coding 3
Расширение режима : CM (complete main)
Параметр Endianness формата : Big
Идентификатор кодека : A_AC3
Продолжительность : 28 м.
Вид битрейта : Постоянный
Битрейт : 192 Кбит/сек
Каналы : 2 канала
Расположение каналов : Front: L R
Частота : 48,0 КГц
Метод сжатия : С потерями
Размер потока : 39,3 Мбайт (3%)
Заголовок : Arkadiy
Язык : Russian
Default : Нет
Forced : Нет

Общее
Уникальный идентификатор : 178072729486540113638205487163569030162 (0x85F78F693F31D831A8E27E6F4A474412)
Полное имя : Blue Mountain State E01 S02 2010 WEB-DL 720p SkyeFilm Arkadiy.mkv
Формат : Matroska
Версия формата : Version 2
Размер файла : 793 Мбайт
Продолжительность : 23 м.
Общий поток : 4676 Кбит/сек
Дата кодирования : UTC 2015-03-15 07:03:42
Программа кодирования : mkvmerge v4.0.0 ('The Stars were mine') сборка от Jun 6 2010 16:18:42
Библиотека кодирования : libebml v1.0.0 + libmatroska v1.0.0
Видео
Идентификатор : 1
Формат : AVC
Формат/Информация : Advanced Video Codec
Профиль формата : High@L3.1
Параметр CABAC формата : Нет
Параметр ReFrames формата : 2 кадра
Идентификатор кодека : V_MPEG4/ISO/AVC
Продолжительность : 23 м.
Битрейт : 4199 Кбит/сек
Ширина : 1280 пикселей
Высота : 720 пикселей
Соотношение сторон : 16:9
Режим частоты кадров : Постоянный
Частота кадров : 23,976 кадра/сек
Цветовое пространство : YUV
Субдискретизация насыщенности : 4:2:0
Битовая глубина : 8 бит
Тип развёртки : Прогрессивная
Бит/(Пиксели*Кадры) : 0.190
Размер потока : 712 Мбайт (90%)
Язык : English
Default : Нет
Forced : Нет
Цветовой диапазон : Limited
Основные цвета : BT.709
Характеристики трансфера : BT.709
Коэффициенты матрицы : BT.709
Аудио #1
Идентификатор : 2
Формат : AC-3
Формат/Информация : Audio Coding 3
Расширение режима : CM (complete main)
Параметр Endianness формата : Big
Идентификатор кодека : A_AC3
Продолжительность : 23 м.
Вид битрейта : Постоянный
Битрейт : 192 Кбит/сек
Каналы : 2 канала
Расположение каналов : Front: L R
Частота : 48,0 КГц
Метод сжатия : С потерями
Размер потока : 32,5 Мбайт (4%)
Заголовок : SkyeFilmTV
Язык : Russian
Default : Нет
Forced : Нет
Аудио #2
Идентификатор : 3
Формат : AC-3
Формат/Информация : Audio Coding 3
Расширение режима : CM (complete main)
Параметр Endianness формата : Big
Идентификатор кодека : A_AC3
Продолжительность : 23 м.
Вид битрейта : Постоянный
Битрейт : 192 Кбит/сек
Каналы : 2 канала
Расположение каналов : Front: L R
Частота : 48,0 КГц
Метод сжатия : С потерями
Размер потока : 32,5 Мбайт (4%)
Заголовок : greys2008&Arkadiy
Язык : Russian
Default : Нет
Forced : Нет

Общее
Уникальный идентификатор : 243482820024535183340675279289640733205 (0xB72D15DCF7119B15BF16B3A65366CA15)
Полное имя : Blue Mountain State E01 S03 2011 WEB-DL 720p SkyeFilm Arkadiy.mkv
Формат : Matroska
Версия формата : Version 2
Размер файла : 768 Мбайт
Продолжительность : 23 м.
Общий поток : 4563 Кбит/сек
Дата кодирования : UTC 2015-03-15 09:07:49
Программа кодирования : mkvmerge v4.0.0 ('The Stars were mine') сборка от Jun 6 2010 16:18:42
Библиотека кодирования : libebml v1.0.0 + libmatroska v1.0.0
Видео
Идентификатор : 1
Формат : AVC
Формат/Информация : Advanced Video Codec
Профиль формата : High@L3.1
Параметр CABAC формата : Нет
Параметр ReFrames формата : 2 кадра
Параметр GOP формата : N=1
Идентификатор кодека : V_MPEG4/ISO/AVC
Продолжительность : 23 м.
Битрейт : 3833 Кбит/сек
Ширина : 1280 пикселей
Высота : 720 пикселей
Соотношение сторон : 16:9
Режим частоты кадров : Постоянный
Частота кадров : 23,976 кадра/сек
Цветовое пространство : YUV
Субдискретизация насыщенности : 4:2:0
Битовая глубина : 8 бит
Тип развёртки : Прогрессивная
Бит/(Пиксели*Кадры) : 0.173
Размер потока : 645 Мбайт (84%)
Язык : English
Default : Нет
Forced : Нет
Цветовой диапазон : Limited
Основные цвета : BT.709
Характеристики трансфера : BT.709
Коэффициенты матрицы : BT.709
Аудио #1
Идентификатор : 2
Формат : AC-3
Формат/Информация : Audio Coding 3
Расширение режима : CM (complete main)
Параметр Endianness формата : Big
Идентификатор кодека : A_AC3
Продолжительность : 23 м.
Вид битрейта : Постоянный
Битрейт : 192 Кбит/сек
Каналы : 2 канала
Расположение каналов : Front: L R
Частота : 48,0 КГц
Метод сжатия : С потерями
Размер потока : 32,3 Мбайт (4%)
Заголовок : SkyeFilmTV
Язык : Russian
Default : Нет
Forced : Нет
Аудио #2
Идентификатор : 3
Формат : AC-3
Формат/Информация : Audio Coding 3
Расширение режима : CM (complete main)
Параметр Endianness формата : Big
Идентификатор кодека : A_AC3
Продолжительность : 23 м.
Вид битрейта : Постоянный
Битрейт : 448 Кбит/сек
Каналы : 6 каналов
Расположение каналов : Front: L C R, Side: L R, LFE
Частота : 48,0 КГц
Метод сжатия : С потерями
Размер потока : 75,4 Мбайт (10%)
Заголовок : greys2008Arkadiy
Язык : Russian
Default : Нет
Forced : Нет





   Похожие торренты   Торрент   Размер 
В этой теме нет новых непрочитанных сообщений. Штат Голубая Гора / Реальные пацаны / Blue Mountain State [03x02] (2011) WEB-DLRip от greys2008&Arkadiy

0 | 2

226.14 МБ

В этой теме нет новых непрочитанных сообщений. Реальные пацаны / Блю Маунтин Стэйт / Blue Mountain State [S01] (2010) WebRip

30 | 11

3.45 ГБ

В этой теме нет новых непрочитанных сообщений. Блю Маунтин Стэйт / Blue Mountain State [S03] (2011) WEB-DL 720p | greys2008/Arkadiy

28 | 12

9.43 ГБ

В этой теме нет новых непрочитанных сообщений. Блю Маунтин Стэйт / Blue Mountain State [S02] (2010) WEB-DLRip от greys2008&Arkadiy

47 | 11

2.94 ГБ

В этой теме нет новых непрочитанных сообщений. Штат Блу Маунтин / Blue Mountain State [s02] (2010-2011) WEB-DLRip от SkyeFilm

198 | 16

3.13 ГБ

В этой теме нет новых непрочитанных сообщений. Блю Маунтин Стэйт / Blue Mountain State [S03] (2011) WEB-DLRip | greys2008/Arkadiy

16 | 4

2.89 ГБ

В этой теме нет новых непрочитанных сообщений. Штат Блу Маунтин / Blue Mountain State [s01] (2010) HDTV 720p от SkyeFilmTV

535 | 9

8.15 ГБ




Вы не можете начинать темы
Вы не можете отвечать на сообщения
Вы не можете редактировать свои сообщения
Вы не можете удалять свои сообщения
Вы не можете добавлять вложения

Перейти:  
Для Мосгорсуда, Роскомнадзора и рекламодателей: mosgorsud-torrent[собачка]yandex.ru
 Вход
ppkBB3cker v.2 © 2008-2014 @ PPK
[ Time : 0.073s | 15 Queries | GZIP : Off ]

Торрент трекер RUTOR.IN, Не можете зайти на rutor.org? Какой новый адрес рутор? Какое зеркало рутор? Не работает rutor.org и зеркала? Тогда наш торрент специально для вас. Rutor.in неофициальное зеркало rutor. В случае если у Вас заблокирован rutor или вдруг Вы не можете на него зайти, то Вы без труда сможете скачать бесплатно и без рекламы последние новинки кино, игр, сериалов и прочего у нас, на Rutor.in. Не нужно использовать прокси, чтобы зайти на рутор, достаточно воспользоваться нашим ресурсом. Все новые фильмы, игры, сериалы, книги и музыка за 2013 и 2014 годы через торрент бесплатно. Скачивайте фильмы в хорошем качестве, игры для пк, xbox, playstation без регистрации. У нас вы найдете новые Зарубежные сериалы и Русские сериалы 2013, 2014, 2015 годов. Оставайтесь с нами, качайте любимые фильмы, игры, сериалы, книги и музыку.