img image001 image001 image001 image001 image001 image001 image001 image001 image001 image001 image001 image001 image001 image001 image001

Planets Sun Sun Sun
Статистика раздачи
Автор: Nickolas3434 | Размер: 5.71 ГБ | Добавлен: 22 апр 2016
Раздают: 108    Качают: 62
Скачать торрент
Скачать торрент
Описание торрента

СообщениеДобавлено: 22 апр 2016 


Информация о фильме
Название: Изгои
Оригинальное название: Outsiders
Год выхода: 2016
Жанр: Драма
Режиссер: Адам Бернштейн, Майкл Трим
В ролях: Даниэль Брикман, Кайл Галлнер, Эд Хиви, Джоанна МакГинли, Джексон Фрейзер, Марк Джеффри Миллер, Ребекка Харрис, Лори Клатшер, Дэвид Дэйл МакКью, Джефф Сейч
О фильме:
В основе сюжета семейство Фарреллов, которые живут в горах. Эта семья не похожа на все остальные, они тяготеют к уединению и стараются не подпускать близко к своему жилищу посторонних людей. Эти места являются таинственными и даже опасными для обычных людей, которые не привыкли к образу жизни Фарреллов, но это обстоятельство только на руку клану, ведь они не хотят, чтобы их жизнь стала достоянием общественности. Время от времени живописность этих мест привлекает богатых людей, которые мечтают владеть этим отдаленным от цивилизованного мира уголком земли. Но Фарреллы уже не единожды доказывали, что с ними шутки плохи. Пока, что им удавалось держать оборону, но будет ли так всегда? Их традиции и законы были придуманы много лет тому назад, до этого момента им удавалось соблюдать все, но теперь жизнь аутсайдеров изменилась, все больше людей пытается проникнуть на их территорию. Защищая свою землю, Фарреллы перейдут черту, за которой кроются самые ужасные поступки, совершаемые когда-либо человеком.

Страна: США
Продолжительность: ~00:53:00
Перевод: Любительский двухголосый закадровый [HamsterStudio]
Файл
Кодек: XviD
Качество: HDTVRip
Видео: 720x400, 23.976 (23976/1000) fps, ~1200 кб/с
Звук: MP3, 128 кб/с (2 ch)
General
Complete name : /home/roma/Відео/Изгои (Outsiders)/Outsiders/Outsiders.S01E01.avi
Format : AVI
Format/Info : Audio Video Interleave
File size : 533 MiB
Duration : 53mn 42s
Overall bit rate : 1 387 Kbps
Writing application : VirtualDubMod 1.5.10.2 (build 2540/release)
Writing library : VirtualDubMod build 2540/release
Video
ID : 0
Format : MPEG-4 Visual
Format profile : Advanced Simple@L5
Format settings, BVOP : 2
Format settings, QPel : No
Format settings, GMC : No warppoints
Format settings, Matrix : Default (H.263)
Muxing mode : Packed bitstream
Codec ID : XVID
Codec ID/Hint : XviD
Duration : 53mn 42s
Bit rate : 1 249 Kbps
Width : 720 pixels
Height : 400 pixels
Display aspect ratio : 16:9
Frame rate : 23.976 (23976/1000) fps
Color space : YUV
Chroma subsampling : 4:2:0
Bit depth : 8 bits
Scan type : Progressive
Compression mode : Lossy
Bits/(Pixel*Frame) : 0.181
Stream size : 480 MiB (90%)
Writing library : XviD 66
Audio
ID : 1
Format : MPEG Audio
Format version : Version 1
Format profile : Layer 3
Mode : Joint stereo
Mode extension : MS Stereo
Codec ID : 55
Codec ID/Hint : MP3
Duration : 53mn 42s
Bit rate mode : Constant
Bit rate : 128 Kbps
Channel(s) : 2 channels
Sampling rate : 48.0 KHz
Compression mode : Lossy
Stream size : 49.2 MiB (9%)
Alignment : Aligned on interleaves
Interleave, duration : 42 ms (1.00 video frame)
Interleave, preload duration : 504 ms
Writing library : LAME3.99r
Encoding settings : -m j -V 4 -q 2 -lowpass 17 -b 128

Семпл

Релиз от: HamsterStudio



   Похожие торренты   Торрент   Размер 
В этой теме нет новых непрочитанных сообщений. Изгои / Outsiders [s01x01-09 из 13] (2016) HDTVRip от HamsterStudio | L2

44 | 40

3.98 ГБ

В этой теме нет новых непрочитанных сообщений. Изгои / Outsiders [s01x01-05 из 13] (2016) HDTVRip от HamsterStudio | L2

50 | 28

2.29 ГБ

В этой теме нет новых непрочитанных сообщений. Изгои / Outsiders [01x01 из 13] (2016) HDTVRip от HamsterStudio | L2

151 | 7

532.76 МБ

В этой теме нет новых непрочитанных сообщений. Изгои / Outsiders [s01x01-11 из 13] (2016) HDTVRip от HamsterStudio | L2

2 | 6

4.83 ГБ

В этой теме нет новых непрочитанных сообщений. Изгои / Outsiders [s01x01-08 из 13] (2016) HDTVRip от HamsterStudio | L2

323 | 50

3.55 ГБ

В этой теме нет новых непрочитанных сообщений. Изгои / Outsiders [01x01-03 из 13] (2016) HDTVRip от HamsterStudio | L2

47 | 27

1.43 ГБ

В этой теме нет новых непрочитанных сообщений. Изгои / Outsiders [s01x01-07 из 13] (2016) HDTVRip от HamsterStudio | L2

64 | 33

3.13 ГБ




Вы не можете начинать темы
Вы не можете отвечать на сообщения
Вы не можете редактировать свои сообщения
Вы не можете удалять свои сообщения
Вы не можете добавлять вложения

Перейти:  
Для Мосгорсуда, Роскомнадзора и рекламодателей: mosgorsud-torrent[собачка]yandex.ru
 Вход
ppkBB3cker v.2 © 2008-2014 @ PPK
[ Time : 2.346s | 14 Queries | GZIP : Off ]

Торрент трекер RUTOR.IN, Не можете зайти на rutor.org? Какой новый адрес рутор? Какое зеркало рутор? Не работает rutor.org и зеркала? Тогда наш торрент специально для вас. Rutor.in неофициальное зеркало rutor. В случае если у Вас заблокирован rutor или вдруг Вы не можете на него зайти, то Вы без труда сможете скачать бесплатно и без рекламы последние новинки кино, игр, сериалов и прочего у нас, на Rutor.in. Не нужно использовать прокси, чтобы зайти на рутор, достаточно воспользоваться нашим ресурсом. Все новые фильмы, игры, сериалы, книги и музыка за 2013 и 2014 годы через торрент бесплатно. Скачивайте фильмы в хорошем качестве, игры для пк, xbox, playstation без регистрации. У нас вы найдете новые Зарубежные сериалы и Русские сериалы 2013, 2014, 2015 годов. Оставайтесь с нами, качайте любимые фильмы, игры, сериалы, книги и музыку.