img image001 image001 image001 image001 image001 image001 image001 image001 image001 image001 image001 image001 image001 image001 image001

Planets Sun Sun Sun
Статистика раздачи
Автор: Nickolas3434 | Размер: 77.16 ГБ | Добавлен: 23 апр 2016
Раздают: 4    Качают: 4
Скачать торрент
Скачать торрент
Описание торрента

СообщениеДобавлено: 23 апр 2016 

«Когда служба - это призвание»



Страна: Россия / Студия "2В"
Жанр: боевик
Год выпуска: 2002...
Продолжительность: 00:44:00 / серия
Перевод: Не требуется
Cубтитры: нет
Оригинальная аудиодорожка: русский
Режиссер: Георгий Николаенко
В ролях: Игорь Лагутин, Юрий Назаров, Евгений Жариков, Борис Щербаков, Семен Морозов, Валерий Гаркалин, Олег Гущин, Виталий Зикора, Альберт Буров, Игнат Акрачков, Данила Перов, Геннадий Митник, Александр Олешко, Станислав Рядинский, Спартак Сумченко, Анна Казючиц...
Описание: Их было семеро, во время первой чеченской войны все они были членами одной из самых сильных диверсионно-разведывательных групп. Весной 1996 года их уволили из армии с формулировкой «за невыполнение боевого приказа». Настоящая же причина была в том, что приказ был изначально преступным. Семеро молодых офицеров (старшему, Доку, чуть больше тридцати пяти лет, остальным нет и тридцати), профессиональных диверсантов супер-класса, оказались вышвырнутыми в мирную жизнь. И каждый попытался в ней как-то устроится.
Капитан спецназа Пастухов пас коров в деревеньке Затопино, военный хирург Док работал санитаром на «скорой», Муха продавал в электричках газеты, а Артист безуспешно пытался пристроиться в каком-нибудь театре.
Так бы все и продолжалось, но некой спецслужбе, условно названной УПСМ (Управление по планированию специальных мероприятий), понадобились исполнители для операции, главным условием которой была конспиративность. Бывшая команда Сергея Пастухова отвечает всем требованиям. Так начинается сотрудничество наших героев с УПСМ. В рискованные дела вовлекают их и другие силы. Но они — не наемники, хотя в шутку и называют себя «солдатами удачи».


Качество: DVDRip, SATRip / DVD9 R5 + DVB
Формат: AVI
Видео 1: 688x528 (4:3), 25.000 fps, XviD ~ 1800 kbps avg, 0.198 bit/pixel (первый и второй сезоны)
Видео 2: 704x528 (4:3), 25.000 fps, XviD ~ 1340 kbps avg, 0.144 bit/pixel (третий сезон)
Видео 3: 688x416 (1.66:1), 25.000 fps, XviD ~ 1340 kbps avg, 0.187 bit/pixel (четвертый сезон)
Видео 4: 704x400 (16:9), 25.000 fps, XviD ~ 1800 kbps avg, 0.256 bit/pixel (пятый, шестой и седьмой сезоны)
Аудио 1: 48 kHz, Dolby AC3, 2 ch, 192 kbps (все сезоны, кроме четвертого)
Аудио 2: 48 kHz, Dolby AC3, 2 ch, 96 kbps (четвертый сезон)
Дополнительно: Этот сериал я просмотрел полностью. Не все серии мне понравились, однако решил все сезоны прокодировать и выставить в сеть. Третий и четвертый сезоны кодировались с посредственных исходников (всего по два DVD9 на 16 серий в сезоне), поэтому там битрейт видео 1340 kbps, а не 1800, как в остальных сезонах. Если у кого-то появится 3 и 4 сезоны в DVB качестве, прошу писать в личку. Это будет в любом случае лучше. Звуковая дорожка в 4-м сезоне выбрана стерео с битрейтом 96 kbps, поскольку 6-и канальная дорожка в 224 kbps - это запредельно низкое качество. Если пересчитывать, то на канал приходится всего 37 kbps, в то время, как в стерео дороге на канал приходится 48 kbps. В раздаче имеется бонусный фильм о фильме о съёмках 6-го сезона сериала - Мужская история. Сезоны с пятого по седьмой кодировались с хороших исходников DVB. Пятый сезон имеется в DVD качестве, однако это очень плохое качество. Если кто-то узнает о появлении новых DVD этого сериала, прошу писать в личку. Слух ещё прошел про восьмой сезон сериала, также прошу сообщать об этой новости, если кому чего известно.
Раздача от:
Внимание! Раздача ведётся путём добавления новых серий
При каждом добавлении создаётся новый торрент. Чтобы начать докачку новой серии, пользователям необходимо сделать следующее:
1) остановить скачивание,
2) удалить старый торрент у себя из клиента (старые серии удалять не надо),
3) скачать новый торрент и запустить его у себя в клиенте вместо старого, при этом указать клиенту путь в старую папку куда и должно происходить скачивание новых серий.
Ваш клиент при этом должен произвести хеширование (проверку) старой папки (если не производит сам - помогите ему сделать это), и будет докачивать только те серии которых у вас ещё нет. Старые серии при этом не удаляются, а продолжают раздаваться!
Eсли вы уже удалили старые серии, то предотвратить повторную закачку старых серий можно, отжав галочку в соответствующих местах при запуске нового торрента.

General
Format : AVI
Format/Info : Audio Video Interleave
File size : 657 MiB
Duration : 45mn 55s
Overall bit rate : 2 001 Kbps
Writing application : VirtualDubMod 1.5.10.3 (build 2550/release)
Writing library : VirtualDubMod build 2550/release
Video
ID : 0
Format : MPEG-4 Visual
Format profile : Advanced Simple@L5
Format settings, BVOP : 1
Format settings, QPel : No
Format settings, GMC : No warppoints
Format settings, Matrix : Custom
Codec ID : XVID
Codec ID/Hint : XviD
Duration : 45mn 55s
Bit rate : 1 799 Kbps
Width : 688 pixels
Height : 528 pixels
Display aspect ratio : 4:3
Frame rate : 25.000 fps
Color space : YUV
Chroma subsampling : 4:2:0
Bit depth : 8 bits
Scan type : Progressive
Compression mode : Lossy
Bits/(Pixel*Frame) : 0.198
Stream size : 591 MiB (90%)
Writing library : XviD 73
Audio
ID : 1
Format : AC-3
Format/Info : Audio Coding 3
Format profile : Dolby Digital
Mode extension : CM (complete main)
Format settings, Endianness : Big
Codec ID : 2000
Duration : 45mn 55s
Bit rate mode : Constant
Bit rate : 192 Kbps
Channel(s) : 2 channels
Channel positions : Front: L R
Sampling rate : 48.0 KHz
Frame rate : 31.250 fps (1536 spf)
Compression mode : Lossy
Stream size : 63.1 MiB (10%)
Alignment : Split accross interleaves
Interleave, duration : 40 ms (1.00 video frame)
Interleave, preload duratio : 500 ms

General
Format : AVI
Format/Info : Audio Video Interleave
File size : 478 MiB
Duration : 43mn 21s
Overall bit rate : 1 540 Kbps
Writing application : VirtualDubMod 1.5.10.3 (build 2550/release)
Writing library : VirtualDubMod build 2550/release
Video
ID : 0
Format : MPEG-4 Visual
Format profile : Advanced Simple@L5
Format settings, BVOP : 1
Format settings, QPel : No
Format settings, GMC : No warppoints
Format settings, Matrix : Custom
Codec ID : XVID
Codec ID/Hint : XviD
Duration : 43mn 21s
Bit rate : 1 339 Kbps
Width : 704 pixels
Height : 528 pixels
Display aspect ratio : 4:3
Frame rate : 25.000 fps
Color space : YUV
Chroma subsampling : 4:2:0
Bit depth : 8 bits
Scan type : Progressive
Compression mode : Lossy
Bits/(Pixel*Frame) : 0.144
Stream size : 415 MiB (87%)
Writing library : XviD 73
Audio
ID : 1
Format : AC-3
Format/Info : Audio Coding 3
Format profile : Dolby Digital
Mode extension : CM (complete main)
Format settings, Endianness : Big
Codec ID : 2000
Duration : 43mn 21s
Bit rate mode : Constant
Bit rate : 192 Kbps
Channel(s) : 2 channels
Channel positions : Front: L R
Sampling rate : 48.0 KHz
Frame rate : 31.250 fps (1536 spf)
Compression mode : Lossy
Stream size : 59.5 MiB (12%)
Alignment : Split accross interleaves
Interleave, duration : 40 ms (1.00 video frame)
Interleave, preload duratio : 500 ms

General
Format : AVI
Format/Info : Audio Video Interleave
File size : 482 MiB
Duration : 46mn 39s
Overall bit rate : 1 445 Kbps
Writing application : VirtualDubMod 1.5.10.3 | www.virtualdub-fr.org || (build 2550/release)
Writing library : VirtualDubMod build 2550/release
Video
ID : 0
Format : MPEG-4 Visual
Format profile : Advanced Simple@L5
Format settings, BVOP : 1
Format settings, QPel : No
Format settings, GMC : No warppoints
Format settings, Matrix : Custom
Codec ID : XVID
Codec ID/Hint : XviD
Duration : 46mn 39s
Bit rate : 1 339 Kbps
Width : 688 pixels
Height : 416 pixels
Display aspect ratio : 5:3
Frame rate : 25.000 fps
Color space : YUV
Chroma subsampling : 4:2:0
Bit depth : 8 bits
Scan type : Progressive
Compression mode : Lossy
Bits/(Pixel*Frame) : 0.187
Stream size : 447 MiB (93%)
Writing library : XviD 73
Audio
ID : 1
Format : AC-3
Format/Info : Audio Coding 3
Mode extension : CM (complete main)
Format settings, Endianness : Big
Codec ID : 2000
Duration : 46mn 38s
Bit rate mode : Constant
Bit rate : 96.0 Kbps
Channel(s) : 2 channels
Channel positions : Front: L R
Sampling rate : 48.0 KHz
Frame rate : 31.250 fps (1536 spf)
Compression mode : Lossy
Stream size : 32.0 MiB (7%)
Alignment : Split accross interleaves
Interleave, duration : 40 ms (1.00 video frame)
Interleave, preload duratio : 500 ms

General
Format : AVI
Format/Info : Audio Video Interleave
File size : 634 MiB
Duration : 44mn 16s
Overall bit rate : 2 002 Kbps
Writing application : VirtualDubMod 1.5.10.3 | www.virtualdub-fr.org || (build 2550/release)
Writing library : VirtualDubMod build 2550/release
Video
ID : 0
Format : MPEG-4 Visual
Format profile : Advanced Simple@L5
Format settings, BVOP : 1
Format settings, QPel : No
Format settings, GMC : No warppoints
Format settings, Matrix : Custom
Codec ID : XVID
Codec ID/Hint : XviD
Duration : 44mn 16s
Bit rate : 1 800 Kbps
Width : 704 pixels
Height : 400 pixels
Display aspect ratio : 16:9
Frame rate : 25.000 fps
Color space : YUV
Chroma subsampling : 4:2:0
Bit depth : 8 bits
Scan type : Progressive
Compression mode : Lossy
Bits/(Pixel*Frame) : 0.256
Stream size : 570 MiB (90%)
Writing library : XviD 73
Audio
ID : 1
Format : MPEG Audio
Format version : Version 1
Format profile : Layer 2
Codec ID : 50
Duration : 44mn 16s
Bit rate mode : Constant
Bit rate : 192 Kbps
Channel(s) : 2 channels
Sampling rate : 48.0 KHz
Compression mode : Lossy
Stream size : 60.8 MiB (10%)
Alignment : Aligned on interleaves
Interleave, duration : 40 ms (1.00 video frame)
Interleave, preload duratio : 504 ms





   Похожие торренты   Торрент   Размер 
В этой теме нет новых непрочитанных сообщений. Кодекс чести [01-07x01-132 из 132 + бонус] (2002...) DVDRip-AVC, SATRip-AVC от New-Team

4 | 12

78.56 ГБ

В этой теме нет новых непрочитанных сообщений. Кодекс чести [01-04х01-16 из 16] (2002-2010) 10xDVD9 от New-Team | Лицензия

10 | 24

73.73 ГБ

В этой теме нет новых непрочитанных сообщений. Кодекс чести [S01] (2002) DVDRip

44 | 7

7.9 ГБ

В этой теме нет новых непрочитанных сообщений. Кодекс чести-5 [01-16 из 16] (2011) SATRip от КинозалSAT

70 | 10

8.59 ГБ

В этой теме нет новых непрочитанных сообщений. Кодекс чести 7 [07x01-12 из 32] (2014) SATRip от Files-x

25 | 6

6.45 ГБ

В этой теме нет новых непрочитанных сообщений. Кодекс чести 7 [07x01-06 из 32] (2014) SATRip от Files-x

42 | 9

3.22 ГБ

В этой теме нет новых непрочитанных сообщений. Кодекс чести 7 [07x01-12 из 32] (2014) SATRip от Files-x

77 | 18

8.6 ГБ




Вы не можете начинать темы
Вы не можете отвечать на сообщения
Вы не можете редактировать свои сообщения
Вы не можете удалять свои сообщения
Вы не можете добавлять вложения

Перейти:  
Для Мосгорсуда, Роскомнадзора и рекламодателей: mosgorsud-torrent[собачка]yandex.ru
 Вход
ppkBB3cker v.2 © 2008-2014 @ PPK
[ Time : 0.049s | 15 Queries | GZIP : Off ]

Торрент трекер RUTOR.IN, Не можете зайти на rutor.org? Какой новый адрес рутор? Какое зеркало рутор? Не работает rutor.org и зеркала? Тогда наш торрент специально для вас. Rutor.in неофициальное зеркало rutor. В случае если у Вас заблокирован rutor или вдруг Вы не можете на него зайти, то Вы без труда сможете скачать бесплатно и без рекламы последние новинки кино, игр, сериалов и прочего у нас, на Rutor.in. Не нужно использовать прокси, чтобы зайти на рутор, достаточно воспользоваться нашим ресурсом. Все новые фильмы, игры, сериалы, книги и музыка за 2013 и 2014 годы через торрент бесплатно. Скачивайте фильмы в хорошем качестве, игры для пк, xbox, playstation без регистрации. У нас вы найдете новые Зарубежные сериалы и Русские сериалы 2013, 2014, 2015 годов. Оставайтесь с нами, качайте любимые фильмы, игры, сериалы, книги и музыку.