img image001 image001 image001 image001 image001 image001 image001 image001 image001 image001 image001 image001 image001 image001 image001

Planets Sun Sun Sun
Статистика раздачи
Автор: Nickolas3434 | Размер: 220.18 МБ | Добавлен: 24 апр 2016
Раздают: 16    Качают: 1
Скачать торрент
Скачать торрент
Описание торрента

СообщениеДобавлено: 24 апр 2016 


Информация о фильме
Название: Бонг времени
Оригинальное название: Time Traveling Bong
Год выхода: 2016
Жанр: комедия
Режиссер: Люсия Аньелло
В ролях: Илана Глейзер, Пол В. Даунс, Кевин, Хеффернан, Джерри Дж. Анджело, Икси Букер, Эйден Бёрджесс, Нил Кэйси, Анджелина Каваллини, Сара Клэнси, Джун Каррил
О фильме:
Брат и сестра находят бонг путешествий во времени и кайфуют сквозь время.

Страна: США
Продолжительность: ~00:22:00 серия
Перевод: Любительский двухголосый [HamsterStudio]
Файл
Кодек: XviD
Качество: WEBRip
Видео: 720x400, 1 245 Kbps, 23.976 (24000/1001) fps
Звук: MP3, 128 Kbps (2 ch)
Семпл


Релиз от: HamsterStudio
General
Complete name : /home/roma/Відео/Бонг для путешествий во времени (Time Traveling Bong)/Time.Traveling.Bong.s01.E01.avi
Format : AVI
Format/Info : Audio Video Interleave
File size : 220 MiB
Duration : 22mn 16s
Overall bit rate : 1 382 Kbps
Writing application : VirtualDubMod 1.5.10.2 (build 2540/release)
Writing library : VirtualDubMod build 2540/release
Video
ID : 0
Format : MPEG-4 Visual
Format profile : Advanced Simple@L5
Format settings, BVOP : 2
Format settings, QPel : No
Format settings, GMC : No warppoints
Format settings, Matrix : Default (H.263)
Muxing mode : Packed bitstream
Codec ID : XVID
Codec ID/Hint : XviD
Duration : 22mn 16s
Bit rate : 1 245 Kbps
Width : 720 pixels
Height : 400 pixels
Display aspect ratio : 16:9
Frame rate : 23.976 (24000/1001) fps
Color space : YUV
Chroma subsampling : 4:2:0
Bit depth : 8 bits
Scan type : Progressive
Compression mode : Lossy
Bits/(Pixel*Frame) : 0.180
Stream size : 198 MiB (90%)
Writing library : XviD 66
Audio
ID : 1
Format : MPEG Audio
Format version : Version 1
Format profile : Layer 3
Mode : Joint stereo
Mode extension : MS Stereo
Codec ID : 55
Codec ID/Hint : MP3
Duration : 22mn 16s
Bit rate mode : Constant
Bit rate : 128 Kbps
Channel(s) : 2 channels
Sampling rate : 48.0 KHz
Compression mode : Lossy
Stream size : 20.4 MiB (9%)
Alignment : Aligned on interleaves
Interleave, duration : 42 ms (1.00 video frame)
Interleave, preload duration : 504 ms
Writing library : LAME3.99r
Encoding settings : -m j -V 4 -q 2 -lowpass 17 -b 128

Когда раздача ведётся путём добавления новых серий, при каждом добавлении создётся новый торрент. Чтобы начать докачку новой серии, пользователям необходимо сделать следующее:
(1) остановить скачивание,
(2) удалить старый торрент у себя из клиента (старые серии удалять не надо),
(3) скачать новый торрент и запустить его у себя в клиенте вместо старого, при этом указать клиенту путь в старую папку, куда и должно происходить скачивание новых серий.
Ваш клиент при этом должен произвести хеширование (проверку) старой папки (если не производит сам - помогите ему сделать это), и будет докачивать только те серии, которых у вас ещё нет. Старые серии при этом не удаляются, а продолжают раздаваться!
Eсли вы уже удалили старые серии, то предотвратить повторную закачку старых серий можно, отжав галочку в соответсвующих местах при запуске нового торрента. По возможности, желательно не удалять старые серии как можно дольше, чтобы релизёр не столько продолжал раздавать старые серии, а смог сконцентрироваться на новых.



   Похожие торренты   Торрент   Размер 
В этой теме нет новых непрочитанных сообщений. Бонг времени / Time Traveling Bong [01x01-02 из 3] (2016) WEBRip от HamsterStudio | L2

0 | 0

439.62 МБ

В этой теме нет новых непрочитанных сообщений. Бонг времени / Time Traveling Bong [S01] (2016) WEBRip от HamsterStudio | L2

43 | 0

670.39 МБ

В этой теме нет новых непрочитанных сообщений. Бонг времени / Time Traveling Bong [01x01-02] (2016) WEBRip 720p | Jimmy J

11 | 9

1.11 ГБ

В этой теме нет новых непрочитанных сообщений. Бонг времени / Time Traveling Bong [01x01] (2016) WEBRip 720p | Jimmy J

469 | 11

530.32 МБ

В этой теме нет новых непрочитанных сообщений. Бонг времени / Time Traveling Bong [S01] (2016) WEBRip 720p | Jimmy J

30 | 10

1.73 ГБ

В этой теме нет новых непрочитанных сообщений. Зло Бонге 2: Король Бонг / Evil Bong II: King Bong (2009) DVDRip

6 | 5

1.36 ГБ

В этой теме нет новых непрочитанных сообщений. Зловещий Бонг 420 / Evil Bong 420 (2015) DVDRip | L2

844 | 27

1 ГБ




Вы не можете начинать темы
Вы не можете отвечать на сообщения
Вы не можете редактировать свои сообщения
Вы не можете удалять свои сообщения
Вы не можете добавлять вложения

Перейти:  
Для Мосгорсуда, Роскомнадзора и рекламодателей: mosgorsud-torrent[собачка]yandex.ru
 Вход
ppkBB3cker v.2 © 2008-2014 @ PPK
[ Time : 0.030s | 15 Queries | GZIP : Off ]

cron