img image001 image001 image001 image001 image001 image001 image001 image001 image001 image001 image001 image001 image001 image001 image001

Planets Sun Sun Sun
Статистика раздачи
Автор: Nickolas3434 | Размер: 123.21 ГБ | Добавлен: 24 апр 2016
Раздают: 10    Качают: 10
Скачать торрент
Скачать торрент
Описание торрента

СообщениеДобавлено: 24 апр 2016 

Древние (Первородные) | The Originals

«Retaining whats ours by helping others»
Сезон 1, Эпизодs c 1 по 22

Информация о фильме:
Название: Древние (Первородные)
Оригинальное название: The Originals
Год выпуска: 2013-2014
Жанр: ужасы, фэнтези, драма, детектив
Режиссёр: Мэттью Хатингс, Крис Грисмер, Джеффри Дж. Хант
В ролях: Джозеф Морган, Дэниэл Гиллис, Чарльз Майкл Дэвис, Каллард Харрис, Александра Фикен, Даниэль Кэмпбелл, Эка Дарвилл, Клер Холт, Даниэлла Пинеда, Леа Пайпс и др.
Описание: Ребекка, Клаус и Элайджа в 20х годах активно участвовали в жизни города Новый Орлеан. Они тайно управляли его жителями, сделав его очень удобным для жизни сверхъестественных существ. Здесь, в городе клубов и алкоголя их существование превратилось в сплошное веселье. Однако, внезапное появление Майкла лишило их стабильности. Теперь, спустя годы, Древние вампиры вновь возвращаются в город, где держится уникальный баланс сил между вампирами, ведьмами и оборотнями, однако видимое спокойствие таит многие интриги.

Страна: США, Alloy Entertainment, Bonanza Productions, CBS Television Studios, My So-Called Company, Warner Bros. Television
Продолжительность: по ~ 00:45:00
Перевод:
- Профессиональный (многоголосый, закадровый) [LostFilm]
- Профессиональный (двухголосый, закадровый) [Кубик в Кубе]
Сохранены оригинальные чаптеры как на Blu-Ray
• Дорожка №1 получена наложением выделенного голоса на центр декодированного AC3, за что спасибо: marchelush
• Синхронизация дорожек 1 и 2, а так же тайминг русских субтитров под BluRay: Stiles (RG SerialS)

[color=#006699]Файл:

Формат: MKV
Видео кодек: MPEG-4 AVC
Аудио кодек: AC3, DTS-HD MA
Свойства видео: 1920x1080 (16:9), 25.000 fps, ~17000 kbps, 0.196 bits/pixel
Аудио #1 : 48 kHz, DTS, 3/2 (L,C,R,l,r) + LFE ch, ~1509.00 kbps avg |Профессиональный (многоголосый, закадровый) [LostFilm]
[color=#999966]Аудио #2 : 48 kHz, AC3, 3/2 (L,C,R,l,r) + LFE ch, ~384.00 kbps avg |Профессиональный (двухголосый, закадровый) [Кубик в Кубе]
Аудио #3 : 48 kHz, DTS-HD MA, 3/2 (L,C,R,l,r) + LFE ch, ~2198.00 kbps avg (DTS Core: 5.1 / 48 kHz / 1509 kbps / 16-bit) |Оригинал|
Аудио #4 : 48 kHz, AC3, 2 (L,R) ch, ~192.00 kbps avg |Commentary|
General
Unique ID : 249344843595189105386477632664178146002 (0xBB9611F07DB7674EA7DF7CCB2ADE3AD2)
Complete name : F:The OriginalsThe Originals S01 BDRemux 1080p 2xRus Eng Subs by Stiles RG SerialSThe Originals S01E01 Always and Forever BDRemux 1080p 2xRus Eng Subs by Stiles RG SerialS.mkv
Format : Matroska
Format version : Version 4 / Version 2
File size : 5.66 GiB
Duration : 42mn 27s
Overall bit rate mode : Variable
Overall bit rate : 19.1 Mbps
Movie name : The Originals 1x01 - Always and Forever - Release by Stiles (RG SerialS)
Encoded date : UTC 2016-04-17 09:41:08
Writing application : mkvmerge v7.9.0 ('Birds') 64bit
Writing library : libebml v1.3.1 + libmatroska v1.4.2
Attachements : cover.jpg
DURATION : 00:41:54.002000000
NUMBER_OF_FRAMES : 761
NUMBER_OF_BYTES : 38434
_STATISTICS_WRITING_APP : mkvmerge v7.9.0 ('Birds') 64bit
_STATISTICS_WRITING_DATE_UT : 2016-04-17 09:41:08
_STATISTICS_TAGS : BPS DURATION NUMBER_OF_FRAMES NUMBER_OF_BYTES
Video
ID : 1
Format : AVC
Format/Info : Advanced Video Codec
Format profile : High@L4
Format settings, CABAC : Yes
Format settings, ReFrames : 2 frames
Codec ID : V_MPEG4/ISO/AVC
Duration : 42mn 27s
Bit rate mode : Variable
Width : 1 920 pixels
Height : 1 080 pixels
Display aspect ratio : 16:9
Frame rate mode : Constant
Frame rate : 23.976 fps
Color space : YUV
Chroma subsampling : 4:2:0
Bit depth : 8 bits
Scan type : Progressive
Language : English
Default : Yes
Forced : No
Audio #1
ID : 2
Format : AC-3
Format/Info : Audio Coding 3
Mode extension : CM (complete main)
Format settings, Endianness : Big
Codec ID : A_AC3
Duration : 42mn 27s
Bit rate mode : Constant
Bit rate : 384 Kbps
Channel(s) : 6 channels
Channel positions : Front: L C R, Side: L R, LFE
Sampling rate : 48.0 KHz
Compression mode : Lossy
Stream size : 117 MiB (2%)
Title : LostFilm
Language : Russian
Default : Yes
Forced : No
Audio #2
ID : 3
Format : AC-3
Format/Info : Audio Coding 3
Mode extension : CM (complete main)
Format settings, Endianness : Big
Codec ID : A_AC3
Duration : 42mn 27s
Bit rate mode : Constant
Bit rate : 384 Kbps
Channel(s) : 6 channels
Channel positions : Front: L C R, Side: L R, LFE
Sampling rate : 48.0 KHz
Compression mode : Lossy
Stream size : 117 MiB (2%)
Title : Кубик в Кубе
Language : Russian
Default : No
Forced : No
Audio #3
ID : 4
Format : DTS
Format/Info : Digital Theater Systems
Format profile : MA / Core
Mode : 16
Format settings, Endianness : Big
Codec ID : A_DTS
Duration : 42mn 27s
Bit rate mode : Variable
Bit rate : Unknown / 1 509 Kbps
Channel(s) : 6 channels
Channel positions : Front: L C R, Side: L R, LFE
Sampling rate : 48.0 KHz
Bit depth : 16 bits
Compression mode : Lossless / Lossy
Language : English
Default : No
Forced : No
Audio #4
ID : 5
Format : AC-3
Format/Info : Audio Coding 3
Format profile : Dolby Digital
Mode extension : CM (complete main)
Format settings, Endianness : Big
Codec ID : A_AC3
Duration : 42mn 27s
Bit rate mode : Constant
Bit rate : 192 Kbps
Channel(s) : 2 channels
Channel positions : Front: L R
Sampling rate : 48.0 KHz
Compression mode : Lossy
Stream size : 58.3 MiB (1%)
Title : Commentary
Language : English
Default : No
Forced : No
Text #1
ID : 6
Format : UTF-8
Codec ID : S_TEXT/UTF8
Codec ID/Info : UTF-8 Plain Text
Title : Mekc
Language : Russian
Default : No
Forced : No
Text #2
ID : 7
Format : PGS
Muxing mode : zlib
Codec ID : S_HDMV/PGS
Codec ID/Info : Picture based subtitle format used on BDs/HD-DVDs
Language : English
Default : No
Forced : No
Menu
00:00:00.000 : en:Chapter 1
00:03:33.295 : en:Chapter 2
00:11:41.951 : en:Chapter 3
00:18:43.497 : en:Chapter 4
00:24:15.828 : en:Chapter 5
00:29:47.618 : en:Chapter 6
00:35:04.768 : en:Chapter 7
00:41:57.681 : en:Chapter 8
00:42:26.418 : en:Chapter 9



Релиз от: Stiles



   Похожие торренты   Торрент   Размер 
В этой теме нет новых непрочитанных сообщений. Древние / The Originals [S02] (2014-2015) BDRemux 1080р | LostFilm, Кубик в Кубе

8 | 5

94.24 ГБ

В этой теме нет новых непрочитанных сообщений. Древние / The Originals [S01] (2013) WEB-DL 1080р | Кубик в Кубе

42 | 107

36.54 ГБ

В этой теме нет новых непрочитанных сообщений. Древние / The Originals [S02] (2014) WEB-DL 1080р | Кубик в Кубе

75 | 160

36.77 ГБ

В этой теме нет новых непрочитанных сообщений. Древние / The Originals [01х01-19] (2013) WEB-DL 1080р | Кубик в Кубе

0 | 56

31.75 ГБ

В этой теме нет новых непрочитанных сообщений. Древние / The Originals [01х01-18] (2013) WEB-DL 1080р | Кубик в Кубе

4 | 138

30.17 ГБ

В этой теме нет новых непрочитанных сообщений. Древние / The Originals [01х01-17] (2013) WEB-DL 1080р | Кубик в Кубе

8 | 67

28.53 ГБ

В этой теме нет новых непрочитанных сообщений. Древние / The Originals [01х01-14] (2013) WEB-DL 1080р | Кубик в Кубе

0 | 8

23.64 ГБ




Вы не можете начинать темы
Вы не можете отвечать на сообщения
Вы не можете редактировать свои сообщения
Вы не можете удалять свои сообщения
Вы не можете добавлять вложения

Перейти:  
Для Мосгорсуда, Роскомнадзора и рекламодателей: mosgorsud-torrent[собачка]yandex.ru
 Вход
ppkBB3cker v.2 © 2008-2014 @ PPK
[ Time : 0.026s | 15 Queries | GZIP : Off ]

Торрент трекер RUTOR.IN, Не можете зайти на rutor.org? Какой новый адрес рутор? Какое зеркало рутор? Не работает rutor.org и зеркала? Тогда наш торрент специально для вас. Rutor.in неофициальное зеркало rutor. В случае если у Вас заблокирован rutor или вдруг Вы не можете на него зайти, то Вы без труда сможете скачать бесплатно и без рекламы последние новинки кино, игр, сериалов и прочего у нас, на Rutor.in. Не нужно использовать прокси, чтобы зайти на рутор, достаточно воспользоваться нашим ресурсом. Все новые фильмы, игры, сериалы, книги и музыка за 2013 и 2014 годы через торрент бесплатно. Скачивайте фильмы в хорошем качестве, игры для пк, xbox, playstation без регистрации. У нас вы найдете новые Зарубежные сериалы и Русские сериалы 2013, 2014, 2015 годов. Оставайтесь с нами, качайте любимые фильмы, игры, сериалы, книги и музыку.