img image001 image001 image001 image001 image001 image001 image001 image001 image001 image001 image001 image001 image001 image001 image001

Planets Sun Sun Sun
Статистика раздачи
Автор: Nickolas3434 | Размер: 9.26 ГБ | Добавлен: 24 апр 2016
Раздают: 9    Качают: 2
Скачать торрент
Скачать торрент
Описание торрента

СообщениеДобавлено: 24 апр 2016 

Древние (Первородные) | The Originals
Дополнительные материалы
к 1-му сезону
«Retaining whats ours by helping others»

Информация о фильме:
Название: Древние (Первородные)
Оригинальное название: The Originals
Год выпуска: 2013-2014
Жанр: ужасы, фэнтези, триллер, драма, детектив, бонусы
Режиссёр: Мэттью Хатингс, Крис Грисмер, Джеффри Дж. Хант и др.
В ролях: Джозеф Морган, Дэниэл Гиллис, Чарльз Майкл Дэвис, Каллард Харрис, Александра Фикен, Даниэль Кэмпбелл, Эка Дарвилл, Клер Холт, Даниэлла Пинеда, Леа Пайпс и др.
Описание: Здесь представлены эксклюзивные материалы с оригинальных Blu-Ray дисков, куда входят 26 вырезанных сцен, видео с панелью сериала на Комик-Коне 2013, видео с PaleyFest'a и многое, многое другое...
The Originals: Origins: More on the birth of the show, from its earliest inception to the evolution of the initial episodes, the challenges the showrunners and crew faced along the way, and the process of introducing characters to an audience that may have never watched The Vampire Diaries.
Re-mixing History: The nuances of blending fact with fiction, the real with the surreal, and history with the supernatural by way of the show's writers.
PaleyFest 2014 Panel: Julie Plec, executive producer Michael Narducci, Charles Michael Davis, Leah Pipes, Phoebe Tonkin, Daniel Gillies, Joseph Morgan, Claire Holt and Daniel Campbell participate in a spirited Q&A at PaleyFest.
Comic-Con 2013 Panel: More Q&A fun with the cast and crew, albeit from Comic-Con 2013, which was held several months before the series' debuted. There's quite a bit of overlap too, making the PaleyFest panel much more revealing and, ultimately, satisfying.
Deleted Scenes
The Original Vampires: A Bite-Sized Backstory: A rapidfire montage of the centuries, characters, deaths, betrayals and conflicts that precede the series proper.


Страна: США, Alloy Entertainment, Bonanza Productions, CBS Television Studios, My So-Called Company, Warner Bros. Television
Продолжительность:
26x ~00:02:00 - Deleted Scenes
00:13:24 - The Originals: Origins
00:09:32 - Re-mixing History
00:29:49 - PaleyFest 2014 Panel
00:29:21 - Comic-Con 2013 Panel

Перевод: Английский
Субтитры: Английские: вшитые, отключаемые
Файл:
Формат: MKV
Видео кодек: MPEG-4 AVC
Аудио кодек: AC3
Свойства видео: 1920x1080 (16:9), 23.976 fps, ~10000 kbps, 0.196 bits/pixel
Аудио : 48 kHz, AC3, 2 (L,R) ch, ~192.00 kbps avg
General
Unique ID : 228905883174304716205997413343124066748 (0xAC35AB6361792A89985B7C97FDB911BC)
Complete name : F:The OriginalsThe Originals S01 Extras BDRemux 1080p Eng Subs by Stiles RG SerialSThe Originals A Bite-Sized Backstory BDRemux 1080p Eng Subs by Stiles RG SerialS.mkv
Format : Matroska
Format version : Version 4 / Version 2
File size : 402 MiB
Duration : 5mn 33s
Overall bit rate mode : Variable
Overall bit rate : 10.1 Mbps
Movie name : The Originals A Bite-Sized Backstory BDRemux 1080p Eng Subs by Stiles RG SerialS
Encoded date : UTC 2016-04-22 14:35:10
Writing application : mkvmerge v7.9.0 ('Birds') 64bit
Writing library : libebml v1.3.1 + libmatroska v1.4.2
Attachements : cover.jpg
DURATION : 00:05:19.277000000
NUMBER_OF_FRAMES : 223
NUMBER_OF_BYTES : 2265221
_STATISTICS_WRITING_APP : mkvmerge v7.9.0 ('Birds') 64bit
_STATISTICS_WRITING_DATE_UT : 2016-04-22 14:35:10
_STATISTICS_TAGS : BPS DURATION NUMBER_OF_FRAMES NUMBER_OF_BYTES
Video
ID : 1
Format : AVC
Format/Info : Advanced Video Codec
Format profile : High@L4
Format settings, CABAC : Yes
Format settings, ReFrames : 2 frames
Format settings, GOP : M=1, N=10
Codec ID : V_MPEG4/ISO/AVC
Duration : 5mn 33s
Bit rate mode : Variable
Bit rate : 9 721 Kbps
Width : 1 920 pixels
Height : 1 080 pixels
Display aspect ratio : 16:9
Frame rate mode : Constant
Frame rate : 23.976 fps
Color space : YUV
Chroma subsampling : 4:2:0
Bit depth : 8 bits
Scan type : Progressive
Bits/(Pixel*Frame) : 0.196
Stream size : 387 MiB (96%)
Default : Yes
Forced : No
Audio
ID : 2
Format : AC-3
Format/Info : Audio Coding 3
Format profile : Dolby Digital
Mode extension : CM (complete main)
Format settings, Endianness : Big
Codec ID : A_AC3
Duration : 5mn 33s
Bit rate mode : Constant
Bit rate : 192 Kbps
Channel(s) : 2 channels
Channel positions : Front: L R
Sampling rate : 48.0 KHz
Compression mode : Lossy
Stream size : 7.63 MiB (2%)
Language : English
Default : Yes
Forced : No
Text
ID : 3
Format : PGS
Muxing mode : zlib
Codec ID : S_HDMV/PGS
Codec ID/Info : Picture based subtitle format used on BDs/HD-DVDs
Language : English
Default : Yes
Forced : No



Релиз от: Stiles



   Похожие торренты   Торрент   Размер 
В этой теме нет новых непрочитанных сообщений. Древние / The Originals [S02] (2014-2015) BDRemux 1080р | Дополнительные материалы

11 | 4

5.44 ГБ

В этой теме нет новых непрочитанных сообщений. Древние / The Originals [S01] (2013-2014) BDRemux 1080р | LostFilm, Кубик в Кубе

10 | 10

123.21 ГБ

В этой теме нет новых непрочитанных сообщений. Гримм / Grimm [S02] (2012-2013) BDRemux 1080р | Дополнительные материалы

9 | 0

12.26 ГБ

В этой теме нет новых непрочитанных сообщений. Древние / The Originals [S02] (2014-2015) BDRemux 1080р | LostFilm, Кубик в Кубе

8 | 5

94.24 ГБ

В этой теме нет новых непрочитанных сообщений. Гримм / Grimm [S01] (2011-2012) BDRemux 1080р | Дополнительные материалы

5 | 0

12.82 ГБ

В этой теме нет новых непрочитанных сообщений. Древние / The Originals [S01] (2013) WEB-DL 1080р | Кубик в Кубе

42 | 107

36.54 ГБ

В этой теме нет новых непрочитанных сообщений. Древние / The Originals [01х01-15] (2013) WEB-DL 1080р | Кубик в Кубе

1 | 89

25.27 ГБ




Вы не можете начинать темы
Вы не можете отвечать на сообщения
Вы не можете редактировать свои сообщения
Вы не можете удалять свои сообщения
Вы не можете добавлять вложения

Перейти:  
Для Мосгорсуда, Роскомнадзора и рекламодателей: mosgorsud-torrent[собачка]yandex.ru
 Вход
ppkBB3cker v.2 © 2008-2014 @ PPK
[ Time : 0.058s | 15 Queries | GZIP : Off ]

Торрент трекер RUTOR.IN, Не можете зайти на rutor.org? Какой новый адрес рутор? Какое зеркало рутор? Не работает rutor.org и зеркала? Тогда наш торрент специально для вас. Rutor.in неофициальное зеркало rutor. В случае если у Вас заблокирован rutor или вдруг Вы не можете на него зайти, то Вы без труда сможете скачать бесплатно и без рекламы последние новинки кино, игр, сериалов и прочего у нас, на Rutor.in. Не нужно использовать прокси, чтобы зайти на рутор, достаточно воспользоваться нашим ресурсом. Все новые фильмы, игры, сериалы, книги и музыка за 2013 и 2014 годы через торрент бесплатно. Скачивайте фильмы в хорошем качестве, игры для пк, xbox, playstation без регистрации. У нас вы найдете новые Зарубежные сериалы и Русские сериалы 2013, 2014, 2015 годов. Оставайтесь с нами, качайте любимые фильмы, игры, сериалы, книги и музыку.