img image001 image001 image001 image001 image001 image001 image001 image001 image001 image001 image001 image001 image001 image001 image001

Planets Sun Sun Sun
Статистика раздачи
Автор: Nickolas3434 | Размер: 7.83 ГБ | Добавлен: 26 апр 2016
Раздают: 383    Качают: 33
Скачать торрент
Скачать торрент
Описание торрента

СообщениеДобавлено: 26 апр 2016 

Информация о фильме
Название: Однажды в Одессе / Жизнь и приключения Мишки Япончика
Год выхода: 2011
Жанр: драма, мелодрама, криминал
Режиссер: Сергей Гинзбург
В ролях: Евгений Ткачук, Елена Шамова, Алексей Филимонов, Вадим Норштейн, Сергей Марин (II), Игорь Арташонов, Валентин Гафт, Всеволод Шиловский, Александр Ильин, Римма Маркова, Анатолий Кот, Артем Осипов, Александр Лазарев мл., Артем Ткаченко, Олег Школьник, Ирина Токарчук, Екатерина Копанова, Валерий Бассэль, Владимир Долинский, Илья Лыков, Игорь Савочкин, Михаил Богдасаров, Андрей Ургант, Константин Самоуков, Сабина Ахмедова, Яна Поплавская, Павел Прилучный, Владимир Гусев (II), Александр Карпов (II), Кирилл Полухин, Екатерина Рубашкина, Владимир Новиков, Владимир Мальцев, Юлия Колодюк, Анатолий Дзиваев, Никита Тарасов, Анатолий Отраднов, Илья Дель
О фильме:
Мишка Японец (Мойша Винницкий, прототип Бени Крика из «Одесских рассказов» Бабеля) – не просто обычный налетчик с одесским колоритом. Стать королем воров, держать в страхе весь город, и одновременно быть народным любимцем мог только человек неординарный. Его популярность колоссальна - в нем видят «Робин Гуда», который радеет за народ, он утверждает свой «кодекс налетчика» - бедняков не грабить, не трогать врачей, юристов, артистов. Его налеты становятся все более артистичными и остроумными, это маленькие спектакли. Миша расчетлив, рационален, но у него широкая душа: он закатывает пиры для всей Молдаванки, снабжает деньгами безработных грузчиков, помогает деньгами и продуктами молодоженам, сиротам, бездомным и даже семьям жертв бандитских налетов. Он пробыл Королем всего три года – с 1917 по 1919-й. Это были три самые яркие года из жизни Япончика, переполненные событиями, на которые у других не хватило бы целой жизни...

Страна: Россия
Продолжительность: 12 x ~ 00:52:00
Язык: Русский
Файл
Качество: WEB-DLRip-AVC
Видео: MPEG-4 AVC, 1024x576, 25 fps, ~1600 kbps
Звук: 48 kHz, Dolby AC3, 2 ch, ~192 kbps
General
Unique ID : 186959291566852763886486966443610474391 (0x8CA70CBFC22D5ED63A00E6CBDFE80797)
Complete name : E:СериалыJizn.Mishki.YAponchika.2011.WEB-DLRIP_AVCOdnazhdy.v.Odesse.Jizn'.Mishki.Japon4ika.(01.serija.iz.12).2011.WEB-DLRIP_AVC.[-=DoMiNo=-].mkv
Format : Matroska
Format version : Version 4 / Version 2
File size : 713 MiB
Duration : 52mn 5s
Overall bit rate : 1 913 Kbps
Writing application : XviD4PSP 7.0.256
Writing library : Lavf57.25.100 / Lavf57.25.100
ENCODING_INFO : MATROSKA,WEBM > MKV / H264 > X264 CRF 19.0 Custom / AC3 > COPY
Video
ID : 1
Format : AVC
Format/Info : Advanced Video Codec
Format profile : High@L4.1
Format settings, CABAC : Yes
Format settings, ReFrames : 12 frames
Codec ID : V_MPEG4/ISO/AVC
Duration : 52mn 5s
Bit rate : 1 683 Kbps
Width : 1 024 pixels
Height : 576 pixels
Display aspect ratio : 16:9
Frame rate mode : Constant
Frame rate : 25.000 fps
Color space : YUV
Chroma subsampling : 4:2:0
Bit depth : 8 bits
Scan type : Progressive
Bits/(Pixel*Frame) : 0.114
Stream size : 627 MiB (88%)
Writing library : x264 core 148 r2665M a01e339
Encoding settings : cabac=1 / ref=12 / deblock=1:-3:-3 / analyse=0x3:0x133 / me=umh / subme=10 / psy=1 / psy_rd=1.00:0.10 / mixed_ref=1 / me_range=32 / chroma_me=1 / trellis=2 / 8x8dct=1 / cqm=0 / deadzone=21,11 / fast_pskip=0 / chroma_qp_offset=-3 / threads=5 / lookahead_threads=1 / sliced_threads=0 / nr=0 / decimate=1 / interlaced=0 / bluray_compat=0 / constrained_intra=0 / bframes=11 / b_pyramid=2 / b_adapt=2 / b_bias=0 / direct=3 / weightb=1 / open_gop=0 / weightp=2 / keyint=250 / keyint_min=25 / scenecut=40 / intra_refresh=0 / rc=crf / mbtree=0 / crf=19.0 / qcomp=0.60 / qpmin=19 / qpmax=69 / qpstep=4 / ip_ratio=1.40 / pb_ratio=1.30 / aq=1:1.00
Default : Yes
Forced : No
DURATION : 00:52:05.560000000
Audio
ID : 2
Format : AC-3
Format/Info : Audio Coding 3
Mode extension : CM (complete main)
Format settings, Endianness : Big
Codec ID : A_AC3
Duration : 52mn 5s
Bit rate mode : Constant
Bit rate : 192 Kbps
Channel(s) : 2 channels
Channel positions : Front: L R
Sampling rate : 48.0 KHz
Frame rate : 31.250 fps (1536 spf)
Bit depth : 32 bits
Compression mode : Lossy
Stream size : 71.5 MiB (10%)
Default : Yes
Forced : No
DURATION : 00:52:05.536000000



   Похожие торренты   Торрент   Размер 
В этой теме нет новых непрочитанных сообщений. OST - Однажды в Одессе / Жизнь и приключения Мишки Япончика (2011) MP3

140 | 4

80.33 МБ

В этой теме нет новых непрочитанных сообщений. Однажды в Одессе / Жизнь и приключения Мишки Япончика [01-12 из 12] (2011) 12xDVD5

17 | 18

32.68 ГБ

В этой теме нет новых непрочитанных сообщений. Однажды в Одессе / Жизнь и приключения Мишки Япончика [01-12 из 12] (2011) WEB-DL (720p)

603 | 103

17.51 ГБ

В этой теме нет новых непрочитанных сообщений. Однажды в Одессе / Жизнь и приключения Мишки Япончика [01-12 из 12] (2011) DVDRip-AVC

756 | 130

8.35 ГБ

В этой теме нет новых непрочитанных сообщений. Однажды в Одессе / Жизнь и приключения Мишки Япончика [01-12 из 12] (2011) DVDRip | КПК от Generalfilm

229 | 41

2.38 ГБ

В этой теме нет новых непрочитанных сообщений. Однажды в Одессе / Жизнь и приключения Мишки Япончика [01-12 из 12] (2011) DVDRip от MediaClub | КПК

640 | 98

3.6 ГБ

В этой теме нет новых непрочитанных сообщений. Однажды в Одессе / Жизнь и приключения Мишки Япончика [01-12 из 12] (2011) 2xDVD9 | Лицензия

45 | 19

15 ГБ




Вы не можете начинать темы
Вы не можете отвечать на сообщения
Вы не можете редактировать свои сообщения
Вы не можете удалять свои сообщения
Вы не можете добавлять вложения

Перейти:  
Для Мосгорсуда, Роскомнадзора и рекламодателей: mosgorsud-torrent[собачка]yandex.ru
 Вход
ppkBB3cker v.2 © 2008-2014 @ PPK
[ Time : 0.080s | 16 Queries | GZIP : Off ]

Торрент трекер RUTOR.IN, Не можете зайти на rutor.org? Какой новый адрес рутор? Какое зеркало рутор? Не работает rutor.org и зеркала? Тогда наш торрент специально для вас. Rutor.in неофициальное зеркало rutor. В случае если у Вас заблокирован rutor или вдруг Вы не можете на него зайти, то Вы без труда сможете скачать бесплатно и без рекламы последние новинки кино, игр, сериалов и прочего у нас, на Rutor.in. Не нужно использовать прокси, чтобы зайти на рутор, достаточно воспользоваться нашим ресурсом. Все новые фильмы, игры, сериалы, книги и музыка за 2013 и 2014 годы через торрент бесплатно. Скачивайте фильмы в хорошем качестве, игры для пк, xbox, playstation без регистрации. У нас вы найдете новые Зарубежные сериалы и Русские сериалы 2013, 2014, 2015 годов. Оставайтесь с нами, качайте любимые фильмы, игры, сериалы, книги и музыку.
cron