img image001 image001 image001 image001 image001 image001 image001 image001 image001 image001 image001 image001 image001 image001 image001

Planets Sun Sun Sun
Статистика раздачи
Автор: Nickolas3434 | Размер: 1.07 ГБ | Добавлен: 27 апр 2016
Раздают: 0    Качают: 0
Скачать торрент
Скачать торрент
Описание торрента

СообщениеДобавлено: 27 апр 2016 


Информация о фильме
Название: Долл и Эм
Оригинальное название: Doll & Em
Год выхода: 2014
Жанр: комедия
Режиссер: Азазель Джейкобс
В ролях: Эмили Мортимер, Долли Уэллс, Джонатан Кэйк, Elsie Richter, Ezra Richter, Миша Рихтер, Михаил Барышников, Оливия Уайлд, Эван Рэйчел Вуд, Аарон Химельштейн
О фильме:
«Долл и Эм» — британская комедия о прелестях и ужасах женской дружбы. Только дружба здесь придумана не армией сценаристов: авторы и главные актрисы шоу, Эмили Мортимер и Долли Уэллс, — лучшие подруги и за кадром, в повседневной жизни. Комедийная коллизия «Долл и Эм» проста: как быть, когда твоя лучшая подруга вдруг становится голливудской звездой, а ты оказываешься в должности ее персонального ассистента? Совместная работа становится серьезным испытанием для дружбы Эм и Долл. Зрителю предстоит пережить целую гамму чувств, от любви до ненависти, — и без фальши.

Страна: Великобритания
Продолжительность: ~00:22:00 серия
Перевод: Любительский многоголосый [HamsterStudio]
Файл
Кодек: XviD
Качество: HDTVRip
Видео: 720x400, 1 085 Kbps, 25.000 fps
Звук: MP3, 128 кб/с (2 ch)

Семпл

Релиз от: HamsterStudio
General
Complete name : /home/roma/Відео/Долл и Эм (Doll & Em)/Doll.&.Em.s01e01.HamsterStudio.avi
Format : AVI
Format/Info : Audio Video Interleave
File size : 193 MiB
Duration : 22mn 3s
Overall bit rate : 1 223 Kbps
Writing application : VirtualDubMod 1.5.10.2 (build 2540/release)
Writing library : VirtualDubMod build 2540/release
Video
ID : 0
Format : MPEG-4 Visual
Format profile : Advanced Simple@L5
Format settings, BVOP : 2
Format settings, QPel : No
Format settings, GMC : No warppoints
Format settings, Matrix : Default (H.263)
Muxing mode : Packed bitstream
Codec ID : XVID
Codec ID/Hint : XviD
Duration : 22mn 3s
Bit rate : 1 085 Kbps
Width : 720 pixels
Height : 400 pixels
Display aspect ratio : 16:9
Frame rate : 25.000 fps
Color space : YUV
Chroma subsampling : 4:2:0
Bit depth : 8 bits
Scan type : Progressive
Compression mode : Lossy
Bits/(Pixel*Frame) : 0.151
Stream size : 171 MiB (89%)
Writing library : XviD 67
Audio
ID : 1
Format : MPEG Audio
Format version : Version 1
Format profile : Layer 3
Codec ID : 55
Codec ID/Hint : MP3
Duration : 22mn 3s
Bit rate mode : Constant
Bit rate : 128 Kbps
Channel(s) : 2 channels
Sampling rate : 48.0 KHz
Compression mode : Lossy
Stream size : 20.2 MiB (10%)
Alignment : Aligned on interleaves
Interleave, duration : 40 ms (1.00 video frame)
Interleave, preload duration : 504 ms



   Похожие торренты   Торрент   Размер 
В этой теме нет новых непрочитанных сообщений. Долл и Эм / Doll and Em [01x01-03 из 06] (2014) HDTVRip от HamsterStudio

0 | 0

569.91 МБ

В этой теме нет новых непрочитанных сообщений. Долл и Эм / Doll and Em [01x01-04 из 06] (2014) HDTVRip от HamsterStudio

0 | 0

741.41 МБ

В этой теме нет новых непрочитанных сообщений. Долл и Эм / Doll and Em [01x01-02 из 06] (2014) HDTVRip от HamsterStudio

0 | 0

387.53 МБ

В этой теме нет новых непрочитанных сообщений. Долл и Эм / Doll and Em [01x01 из 06] (2014) HDTVRip от HamsterStudio

0 | 0

192.95 МБ

В этой теме нет новых непрочитанных сообщений. SEX DOLL / Sex Doll (2016) WEB-DLRip-AVC от OlLanDGroup | iTunes

84 | 11

2.2 ГБ

В этой теме нет новых непрочитанных сообщений. SEX DOLL / Sex Doll (2016) WEB-DLRip от MegaPeer | iTunes

114 | 5

745.63 МБ

В этой теме нет новых непрочитанных сообщений. SEX DOLL / Sex Doll (2016) WEB-DLRip от MegaPeer | iTunes

4381 | 324

1.46 ГБ




Вы не можете начинать темы
Вы не можете отвечать на сообщения
Вы не можете редактировать свои сообщения
Вы не можете удалять свои сообщения
Вы не можете добавлять вложения

Перейти:  
Для Мосгорсуда, Роскомнадзора и рекламодателей: mosgorsud-torrent[собачка]yandex.ru
 Вход
ppkBB3cker v.2 © 2008-2014 @ PPK
[ Time : 0.049s | 15 Queries | GZIP : Off ]

Торрент трекер RUTOR.IN, Не можете зайти на rutor.org? Какой новый адрес рутор? Какое зеркало рутор? Не работает rutor.org и зеркала? Тогда наш торрент специально для вас. Rutor.in неофициальное зеркало rutor. В случае если у Вас заблокирован rutor или вдруг Вы не можете на него зайти, то Вы без труда сможете скачать бесплатно и без рекламы последние новинки кино, игр, сериалов и прочего у нас, на Rutor.in. Не нужно использовать прокси, чтобы зайти на рутор, достаточно воспользоваться нашим ресурсом. Все новые фильмы, игры, сериалы, книги и музыка за 2013 и 2014 годы через торрент бесплатно. Скачивайте фильмы в хорошем качестве, игры для пк, xbox, playstation без регистрации. У нас вы найдете новые Зарубежные сериалы и Русские сериалы 2013, 2014, 2015 годов. Оставайтесь с нами, качайте любимые фильмы, игры, сериалы, книги и музыку.