img image001 image001 image001 image001 image001 image001 image001 image001 image001 image001 image001 image001 image001 image001 image001

Planets Sun Sun Sun
Статистика раздачи
Автор: Nickolas3434 | Размер: 10.18 ГБ | Добавлен: 27 апр 2016
Раздают: 38    Качают: 26
Скачать торрент
Скачать торрент
Описание торрента

СообщениеДобавлено: 27 апр 2016 

Убежище / Sanctuary
Год выпуска: 2008 – 2011
Страна: Канада
Жанр: Фантастика, фэнтези, драма, детектив
Режиссёр: Мартин Вуд, Стивен А. Эделсон, Брентон Спенсер
В ролях: Аманда Таппинг, Робин Данн, Кристофер Хейердал, Райан Роббинс, Агам Дарши, Эмили Уллерап, Джонатан Янг, Роберт Лоуренсон, Паскаль Хаттон, Иэн Трейси
Сезоны: 1 - 4 из 4
Серии: Все серии
Продолжительность: ~ 00:45:00
Перевод: Профессиональный (многоголосый, закадровый) [Sci-Fi]
Субтитры: Нет
Описание: Убийца из настоящего убивает проституток из прошлого… Кто он? Тот легендарный Джек Потрошитель или кто-то ещё? Откуда появляются чудовища и монстры и что вообще происходит? Это и предстоит узнать главным героям сериала…

Качество:
Сезон 1: HDTVRip
Сезоны 2 - 4: WEB-DLRip
Формат: MP4
Видео кодек: AVC
Аудио кодек: AAC
Видео: 420 kbps, 480x272, 23.976 fps
Аудио: 128 kbps, 2 ch, 48,0 khz
Рип от: Egorijj.Alien
Релиз от:
Сезон 1:
01 Убежище для Всех. Часть 1 (Sanctuary for All. Part 1)
02 Убежище для Всех. Часть 2 (Sanctuary for All. Part 2)
03 Мираж (Fata Morgana)
04 Складывающийся человек (Folding Man)
05 Куш (Kush)
06 Комочки (Nubbins)
07 Пять (The Five)
08 Эдвард (Edward)
09 Реквием (Requiem)
10 Бойцы (Warriors)
11 Инстинкт (Instinct)
12 Открытие. Часть 1 (Revelations)
13 Открытие. Часть 2 (Revelations)
Сезон 2:
01 Конец ночей. Часть 1 (End of Nights: Part 1)
02 Конец ночей. Часть 2 (End of Nights: Part 2)
03 Прощание (Eulogy)
04 Герой (Hero)
05 Ночные кошмары (Pavor Nocturnus)
06 Фрагменты (Fragments)
07 Истина (Veritas)
08 Следующий Вторник (Next Tuesday)
09 Покаяние (Penance)
10 Спящие (Sleepers)
11 Призрак (Haunted)
12 Кали: Часть I(Kali: Part I)
13 Кали: Часть II(Kali: Part II)
Сезон 3:
01 Кали: Часть 3 (Kali: Part 3)
02 Файрвол (Firewall)
03 Работа в банке (Bank Job)
04 След крови (Trail of Blood)
05 Герой 2: Сломанная Стрела (Hero II: Broken Arrow)
06 Дух (Animus)
07 Нарушение (Breach)
08 За короля и отечество (For King And Country)
09 Каратель (Vigilante)
10 Пещерные люди (The Hollow Men)
11 Навязанный мир (Pax Romana)
12 Наследие (Hangove)
13 Одна ночь (One Night)
14 Метаморфоз (Metamorphosis)
15 Двойное свидание (Wingman)
16 Пробуждение (Awakening)
17 Нормандия (Normandy)
18 Карантан (Carentan)
19 Гром среди ясного неба (Out of the Blue)
20 Из-под земли (Into the Black)
Сезон 4:
01 Время (Tempus)
02 Восстание (Uprising)
03 Неприкасаемый (Untouchable)
04 Сезон дождей (Monsoon)
05 Сопротивление (Resistance)
06 Возвращение домой (Homecoming)
07 Ледокол (Icebreaker)
08 Мелодия чувств (Fugue)
09 Химера (Chimera)
10 Помощник (Acolyte)
11 Живая вода (The Depths)
12 Убежище ни для кого. Часть 1 (Sanctuary for None. Part 1)
13 Убежище ни для кого. Часть 2 (Sanctuary for None. Part 2)



HDTVRip:


General
Complete name : E:Видеоmp4 480SanctuarySanctuary.S01.HDTVRipSanctuary.S01E01.E02.mp4
Format : MPEG-4
Format profile : Base Media
Codec ID : isom (isom/avc1)
File size : 342 MiB
Duration : 1h 26mn
Overall bit rate mode : Variable
Overall bit rate : 552 Kbps
Encoded date : UTC 2016-04-19 01:38:31
Tagged date : UTC 2016-04-19 01:38:31
Video
ID : 1
Format : AVC
Format/Info : Advanced Video Codec
Format profile : High@L2.1
Format settings, CABAC : Yes
Format settings, ReFrames : 7 frames
Codec ID : avc1
Codec ID/Info : Advanced Video Coding
Duration : 1h 26mn
Bit rate : 420 Kbps
Maximum bit rate : 1 711 Kbps
Width : 480 pixels
Height : 272 pixels
Display aspect ratio : 16:9
Frame rate mode : Constant
Frame rate : 23.976 (24000/1001) fps
Color space : YUV
Chroma subsampling : 4:2:0
Bit depth : 8 bits
Scan type : Progressive
Bits/(Pixel*Frame) : 0.134
Stream size : 261 MiB (76%)
Writing library : x264 core 130 r2273 b3065e6
Encoding settings : cabac=1 / ref=7 / deblock=1:-1:-1 / analyse=0x3:0x133 / me=umh / subme=8 / psy=1 / psy_rd=1.00:0.10 / mixed_ref=1 / me_range=24 / chroma_me=1 / trellis=2 / 8x8dct=1 / cqm=0 / deadzone=21,11 / fast_pskip=0 / chroma_qp_offset=-3 / threads=3 / lookahead_threads=1 / sliced_threads=0 / nr=0 / decimate=1 / interlaced=0 / bluray_compat=0 / constrained_intra=0 / bframes=7 / b_pyramid=2 / b_adapt=2 / b_bias=0 / direct=3 / weightb=1 / open_gop=0 / weightp=2 / keyint=250 / keyint_min=23 / scenecut=40 / intra_refresh=0 / rc_lookahead=50 / rc=2pass / mbtree=1 / bitrate=420 / ratetol=1.0 / qcomp=0.60 / qpmin=0 / qpmax=69 / qpstep=4 / cplxblur=20.0 / qblur=0.5 / ip_ratio=1.40 / aq=1:1.00
Encoded date : UTC 2016-04-19 01:38:31
Tagged date : UTC 2016-04-19 01:38:50
Audio
ID : 2
Format : AAC
Format/Info : Advanced Audio Codec
Format profile : LC
Codec ID : 40
Duration : 1h 26mn
Bit rate mode : Variable
Bit rate : 128 Kbps
Maximum bit rate : 133 Kbps
Channel(s) : 2 channels
Channel positions : Front: L R
Sampling rate : 48.0 KHz
Frame rate : 46.875 fps (1024 spf)
Compression mode : Lossy
Stream size : 79.4 MiB (23%)
Encoded date : UTC 2016-04-19 01:38:46
Tagged date : UTC 2016-04-19 01:38:50



WEB-DLRip:


General
Complete name : E:Видеоmp4 480SanctuarySanctuary.S02.WEB-DLRipSanctuary.S02E01.mp4
Format : MPEG-4
Format profile : Base Media
Codec ID : isom (isom/avc1)
File size : 179 MiB
Duration : 45mn 17s
Overall bit rate mode : Variable
Overall bit rate : 552 Kbps
Encoded date : UTC 2016-04-24 06:18:54
Tagged date : UTC 2016-04-24 06:18:54
Video
ID : 1
Format : AVC
Format/Info : Advanced Video Codec
Format profile : High@L2.1
Format settings, CABAC : Yes
Format settings, ReFrames : 7 frames
Codec ID : avc1
Codec ID/Info : Advanced Video Coding
Duration : 45mn 17s
Bit rate : 420 Kbps
Maximum bit rate : 2 153 Kbps
Width : 480 pixels
Height : 272 pixels
Display aspect ratio : 16:9
Frame rate mode : Constant
Frame rate : 23.976 (24000/1001) fps
Color space : YUV
Chroma subsampling : 4:2:0
Bit depth : 8 bits
Scan type : Progressive
Bits/(Pixel*Frame) : 0.134
Stream size : 136 MiB (76%)
Writing library : x264 core 130 r2273 b3065e6
Encoding settings : cabac=1 / ref=7 / deblock=1:-1:-1 / analyse=0x3:0x133 / me=umh / subme=8 / psy=1 / psy_rd=1.00:0.10 / mixed_ref=1 / me_range=24 / chroma_me=1 / trellis=2 / 8x8dct=1 / cqm=0 / deadzone=21,11 / fast_pskip=0 / chroma_qp_offset=-3 / threads=3 / lookahead_threads=1 / sliced_threads=0 / nr=0 / decimate=1 / interlaced=0 / bluray_compat=0 / constrained_intra=0 / bframes=7 / b_pyramid=2 / b_adapt=2 / b_bias=0 / direct=3 / weightb=1 / open_gop=0 / weightp=2 / keyint=250 / keyint_min=23 / scenecut=40 / intra_refresh=0 / rc_lookahead=50 / rc=2pass / mbtree=1 / bitrate=420 / ratetol=1.0 / qcomp=0.60 / qpmin=0 / qpmax=69 / qpstep=4 / cplxblur=20.0 / qblur=0.5 / ip_ratio=1.40 / aq=1:1.00
Encoded date : UTC 2016-04-24 06:18:54
Tagged date : UTC 2016-04-24 06:19:03
Audio
ID : 2
Format : AAC
Format/Info : Advanced Audio Codec
Format profile : LC
Codec ID : 40
Duration : 45mn 17s
Bit rate mode : Variable
Bit rate : 128 Kbps
Maximum bit rate : 133 Kbps
Channel(s) : 2 channels
Channel positions : Front: L R
Sampling rate : 48.0 KHz
Frame rate : 46.875 fps (1024 spf)
Compression mode : Lossy
Stream size : 41.5 MiB (23%)
Encoded date : UTC 2016-04-24 06:19:01
Tagged date : UTC 2016-04-24 06:19:03



   Похожие торренты   Торрент   Размер 
В этой теме нет новых непрочитанных сообщений. Убежище / Sanctuary [S01-04] (2008-2011) DVDRip, WEB-DLRip | Sci-Fi

166 | 36

26.6 ГБ

В этой теме нет новых непрочитанных сообщений. Убежище / Sanctuary [S04] (2011) WEB-DLRip | P SyFy

11 | 4

5.72 ГБ

В этой теме нет новых непрочитанных сообщений. Убежище / Sanctuary [S04] (2011) WEB-DLRip | Gravi-TV

1 | 2

5.77 ГБ

В этой теме нет новых непрочитанных сообщений. Убежище / Sanctuary [s03] (2010-2011) HDTVRip от napaBo3uk

12 | 3

6.96 ГБ

В этой теме нет новых непрочитанных сообщений. Убежище / Sanctuary [S01] (2008) HDRip от FilmGate (ТВ3)

40 | 11

5.16 ГБ

В этой теме нет новых непрочитанных сообщений. Убежище / Sanctuary [S01] (2008) BDRip от HELLYWOOD

10 | 12

11.08 ГБ

В этой теме нет новых непрочитанных сообщений. Убежище / Sanctuary [S02] (2008-2009) WEB-DL 720p | SyFy

0 | 2

19.01 ГБ




Вы не можете начинать темы
Вы не можете отвечать на сообщения
Вы не можете редактировать свои сообщения
Вы не можете удалять свои сообщения
Вы не можете добавлять вложения

Перейти:  
Для Мосгорсуда, Роскомнадзора и рекламодателей: mosgorsud-torrent[собачка]yandex.ru
 Вход
ppkBB3cker v.2 © 2008-2014 @ PPK
[ Time : 5.493s | 15 Queries | GZIP : On ]

Торрент трекер RUTOR.IN, Не можете зайти на rutor.org? Какой новый адрес рутор? Какое зеркало рутор? Не работает rutor.org и зеркала? Тогда наш торрент специально для вас. Rutor.in неофициальное зеркало rutor. В случае если у Вас заблокирован rutor или вдруг Вы не можете на него зайти, то Вы без труда сможете скачать бесплатно и без рекламы последние новинки кино, игр, сериалов и прочего у нас, на Rutor.in. Не нужно использовать прокси, чтобы зайти на рутор, достаточно воспользоваться нашим ресурсом. Все новые фильмы, игры, сериалы, книги и музыка за 2013 и 2014 годы через торрент бесплатно. Скачивайте фильмы в хорошем качестве, игры для пк, xbox, playstation без регистрации. У нас вы найдете новые Зарубежные сериалы и Русские сериалы 2013, 2014, 2015 годов. Оставайтесь с нами, качайте любимые фильмы, игры, сериалы, книги и музыку.