img image001 image001 image001 image001 image001 image001 image001 image001 image001 image001 image001 image001 image001 image001 image001

Planets Sun Sun Sun
Статистика раздачи
Автор: Nickolas3434 | Размер: 4.08 ГБ | Добавлен: 30 апр 2016
Раздают: 0    Качают: 0
Скачать торрент
Скачать торрент
Описание торрента

СообщениеДобавлено: 30 апр 2016 

Название: Цветы
Оригинальное название: Flowers
Год выхода: 2016
Жанр: комедия
Режиссер: Уилл Шарп
В ролях:
Оливия Колмэн, Джулиан Барратт, София Ди Мартино, Даниэль Ригби, Лейла Хофман, Уилл Шарп, Колин Хёрли, Энгус Райт и др.
Описание сериала:
Комедия знакомит зрителей с неординарной семьей, остающейся единым целым, вопреки всему. Дебора - учитель музыки в школе, Моррис - преуспевает на поприще детской литературы. Эти родители стараются усмотреть за близняшками, коих зовут Эмма и Дональд. В этом же доме соседствует и мать мужа, от которой семейство хочет укрыть шаткость своих отношений. Мужа раздирают личные наклонности и тайны, а жена все время считает, что тот неравнодушен к знакомому парню-японцу, являющемся иллюстратором для всех детских сочинений.

Страна: Великобритания
Продолжительность: ~00:30:00
Перевод: Любительский (двухголосый) Sunshine Studio
Субтитры: Отсутствуют
Реклама: Присутствует
Файл
Формат: MKV
Качество: HDTV 720р
Видео: MPEG-4 AVC, ~ 3000 Кбит/с, 1280x720
Аудио: 48 kHz, AC3 Dolby Digital, 2/0 (L,R) ch, ~192 kbps
Релиз группа:

ормат : Matroska
Версия формата : Version 2
Размер файла : 975 Мбайт
Продолжительность : 29 м.
Общий поток : 4595 Кбит/сек
Дата кодирования : UTC 2016-04-27 19:03:30
Программа кодирования : mkvmerge v7.8.0 ('River Man') 32bit built on Apr 3 2015 12:11:22
Библиотека кодирования : libebml v1.3.1 + libmatroska v1.4.2 / Lavf55.37.101
Видео
Идентификатор : 1
Формат : AVC
Формат/Информация : Advanced Video Codec
Профиль формата : Main@L3.1
Параметр CABAC формата : Да
Параметр ReFrames формата : 4 кадра
Идентификатор кодека : V_MPEG4/ISO/AVC
Продолжительность : 29 м.
Битрейт : 4444 Кбит/сек
Ширина : 1280 пикселей
Высота : 720 пикселей
Соотношение сторон : 16:9
Режим частоты кадров : Постоянный
Частота кадров : 23,976 кадра/сек
Цветовое пространство : YUV
Субдискретизация насыщенности : 4:2:0
Битовая глубина : 8 бит
Тип развёртки : Прогрессивная
Бит/(Пиксели*Кадры) : 0.201
Размер потока : 915 Мбайт (94%)
Библиотека кодирования : x264 core 119
Настройки программы : cabac=1 / ref=1 / deblock=1:0:0 / analyse=0x1:0x1 / me=dia / subme=1 / psy=1 / psy_rd=1.00:0.00 / mixed_ref=0 / me_range=16 / chroma_me=1 / trellis=0 / 8x8dct=0 / cqm=0 / deadzone=21,11 / fast_pskip=1 / chroma_qp_offset=0 / threads=2 / sliced_threads=0 / nr=0 / decimate=1 / interlaced=0 / bluray_compat=0 / constrained_intra=0 / bframes=3 / b_pyramid=2 / b_adapt=1 / b_bias=0 / direct=1 / weightb=1 / open_gop=0 / weightp=1 / keyint=250 / keyint_min=23 / scenecut=40 / intra_refresh=0 / rc=abr / mbtree=0 / bitrate=4444 / ratetol=1.0 / qcomp=0.60 / qpmin=0 / qpmax=69 / qpstep=4 / ip_ratio=1.40 / pb_ratio=1.30 / aq=1:1.00
Default : Да
Forced : Нет
Аудио
Идентификатор : 2
Формат : AC-3
Формат/Информация : Audio Coding 3
Расширение режима : CM (complete main)
Параметр Endianness формата : Big
Идентификатор кодека : A_AC3
Продолжительность : 29 м.
Вид битрейта : Постоянный
Битрейт : 192 Кбит/сек
Каналы : 2 канала
Расположение каналов : Front: L R
Частота : 48,0 КГц
Частота кадров : 31,250 кадров/сек (1536 spf)
Метод сжатия : С потерями
Задержка видео : -83 мс.
Размер потока : 40,7 Мбайт (4%)
Default : Да
Forced : Нет
Внимание! Раздача ведётся путём добавления новых серий; при каждом добавлении создаётся новый торрент. Чтобы начать докачку новой серии, пользователям необходимо сделать следующее:
(1) остановить скачивание,
(2) удалить старый торрент у себя из клиента (старые серии удалять не надо),
(3) скачать новый торрент и запустить его у себя в клиенте вместо старого, при этом указать клиенту путь в старую папку куда и должно происходить скачивание новых серий.
Ваш клиент при этом должен произвести хеширование (проверку) старой папки (если не производит сам - помогите ему сделать это), и будет докачивать только те серии которых у вас ещё нет. Старые серии при этом не удаляются, а продолжают раздаваться!
Eсли вы уже удалили старые серии, то предотвратить повторную закачку старых серий можно, отжав галочку в соответсвующих местах при запуске нового торрента. По возможности, желательно не удалять старые серии как можно дольше чтобы релизёр не столько продолжал раздавать старые серии, а смог сконцентрироваться на новых.



   Похожие торренты   Торрент   Размер 
В этой теме нет новых непрочитанных сообщений. Цветы / Flowers [01х01-03 из 06] (2016) HDTV 720р | Sunshine Studio

0 | 0

3.22 ГБ

В этой теме нет новых непрочитанных сообщений. Цветы / Flowers [01х01-03 из 06] (2016) HDTVRip | Sunshine Studio

12 | 0

1.5 ГБ

В этой теме нет новых непрочитанных сообщений. Цветы / Flowers [01х01-03 из 06] (2016) HDTVRip | Sunshine Studio

1 | 0

1.18 ГБ

В этой теме нет новых непрочитанных сообщений. Улов / The Catch [01х01 из 13] (2016) HDTV 720р | Sunshine Studio

95 | 16

983.17 МБ

В этой теме нет новых непрочитанных сообщений. В объезд / The Detour [01х01 из 13] (2016) HDTV 720р | Sunshine Studio

21 | 2

542 МБ

В этой теме нет новых непрочитанных сообщений. Пришельцы / The Aliens [01х01-04 из 05] (2016) HDTV 720р | Sunshine Studio

58 | 25

4.98 ГБ

В этой теме нет новых непрочитанных сообщений. Улов / The Catch [01х01-02 из 13] (2016) HDTV 720р | Sunshine Studio

1 | 1

1.87 ГБ




Вы не можете начинать темы
Вы не можете отвечать на сообщения
Вы не можете редактировать свои сообщения
Вы не можете удалять свои сообщения
Вы не можете добавлять вложения

Перейти:  
Для Мосгорсуда, Роскомнадзора и рекламодателей: mosgorsud-torrent[собачка]yandex.ru
 Вход
ppkBB3cker v.2 © 2008-2014 @ PPK
[ Time : 0.091s | 15 Queries | GZIP : On ]

Торрент трекер RUTOR.IN, Не можете зайти на rutor.org? Какой новый адрес рутор? Какое зеркало рутор? Не работает rutor.org и зеркала? Тогда наш торрент специально для вас. Rutor.in неофициальное зеркало rutor. В случае если у Вас заблокирован rutor или вдруг Вы не можете на него зайти, то Вы без труда сможете скачать бесплатно и без рекламы последние новинки кино, игр, сериалов и прочего у нас, на Rutor.in. Не нужно использовать прокси, чтобы зайти на рутор, достаточно воспользоваться нашим ресурсом. Все новые фильмы, игры, сериалы, книги и музыка за 2013 и 2014 годы через торрент бесплатно. Скачивайте фильмы в хорошем качестве, игры для пк, xbox, playstation без регистрации. У нас вы найдете новые Зарубежные сериалы и Русские сериалы 2013, 2014, 2015 годов. Оставайтесь с нами, качайте любимые фильмы, игры, сериалы, книги и музыку.