img image001 image001 image001 image001 image001 image001 image001 image001 image001 image001 image001 image001 image001 image001 image001

Planets Sun Sun Sun
Статистика раздачи
Автор: Nickolas3434 | Размер: 24.89 ГБ | Добавлен: 30 апр 2016
Раздают: 4    Качают: 3
Скачать торрент
Скачать торрент
Описание торрента

СообщениеДобавлено: 30 апр 2016 


Информация о фильме
Название: Джесси
Оригинальное название: Jessie
Год выпуска: 2011-2012
Жанр: Комедия, семейный
Режиссер: Боб Коэрр
В ролях: Дебби Райан, Пейтон Лист, Кэмерон Бойс, Каран Брэр, Кевин Чэмберлин, Крис Галя, Кэролин Хеннеси, Кристина Мур
О фильме:
Сериал рассказывает о 18-летней Джесси, которая переезжает из Техаса в Нью-Йорк. Здесь она устраивается работать няней в семье известного режиссёра и супермодели. На плечи девушки ложится забота о четырех отпрысках звёздной пары. Но воспитание непослушных подопечных совсем её не тяготит, ведь она и сама ещё почти ребёнок: тайком ест сладкое и обожает вечеринки. А значит, с приходом Джесси в дом Россов веселье только начинается!
Дополнительная информация:
Работа со звуком - CergMark, CerGold
Страна: США
Студия: It's a Laugh Productions
Продолжительность: 26 x ~ 00:22:00
Перевод: Дублированный
Файл
Кодек: h.264
Качество: WEB-DL (1080p)
Видео: MPEG-4 AVC, ~ 5300 Кбит/с, 1920x1080, 23.976 fps
Звук:
Русский: 48 kHz, AC3, 6 ch, 384 Кбит/с
Английский: 48 kHz, AC3, 6 ch, 384 Кбит/с
Субтитры: Английские (полные)
1 сезон:
01. Няня в Нью-Йорке (New York, New Nanny)
02. Талантливый мистер Киплинг (The Talented Mr. Kipling)
03. Использовать карму (Used Karma)
04. Вечеринка у зомби (Zombie Tea Party 5)
05. Один день чудес (One Day Wonders)
06. Старый новый друг (Zuri's New Old Friend)
07. Жуткая Конни находит призвание (Creepy Connie Comes a Callin)
08. Рождественская история (Christmas Story)
09. Звёздные войны (Star Wars)
10. Кто круче пятиклассника? (Are You Cooler Than a 5th Grader)
11. Купить билет на поезд (Take the A-Train... I Think!)
12. История о старухе (Romancing the Crone)
13. Принцесса на горошине (The Princess & the Pea Brain)
14. Паутина лжи (World Wide Web of Lies)
15. Маленький сплетник (The Kid Whisperer)
16. Щекотливая ситуация (Glue Dunnit: A Sticky Situation)
17. Плохие парни (Badfellas)
18. Красавица и чудовища (Beauty and the Beasts)
19. Зло приходит дважды (Evil Times Two)
20. Буря в стакане воды (Tempest in a Teacup)
21. Дом для куклы (A Doll's Outhouse)
22. Мы приземлились! (We Are So Grounded)
23. Жуткая Кони возвращается (Creepy Connie's Curtain Call)
24. Звонящие коровы и страшные стены (Cattle Calls & Scary Walls)
25. День заботы (Gotcha Day)
26. Тайная жизнь мистера Киплинга (The Secret Life of Mr. Kipling)
Общее
Уникальный идентификатор : 223002804199402902741806030908130834684 (0xA7C4C71FCD10FC4488A9AB3D3B53B8FC)
Полное имя : D:DownloadsВременные файлыДжесси_Jessie.S01.WEB-DL.1080pJessie.S01E02. Талантливый мистер Киплинг.(The Talented Mr. Kipling).WEB-DL.1080p.mkv
Формат : Matroska
Версия формата : Version 4 / Version 2
Размер файла : 993 Мбайт
Продолжительность : 22 м.
Общий поток : 6128 Кбит/сек
Дата кодирования : UTC 2016-04-17 04:38:14
Программа кодирования : mkvmerge v9.0.1 ('Obstacles') 64bit
Библиотека кодирования : libebml v1.3.3 + libmatroska v1.4.4
Видео
Идентификатор : 1
Формат : AVC
Формат/Информация : Advanced Video Codec
Профиль формата : High@L4
Параметр CABAC формата : Да
Параметр ReFrames формата : 4 кадра
Идентификатор кодека : V_MPEG4/ISO/AVC
Продолжительность : 22 м.
Битрейт : 5358 Кбит/сек
Ширина : 1920 пикселей
Высота : 1080 пикселей
Соотношение сторон : 16:9
Режим частоты кадров : Постоянный
Частота кадров : 23,976 (23976/1000) кадра/сек
Цветовое пространство : YUV
Субдискретизация насыщенности : 4:2:0
Битовая глубина : 8 бит
Тип развёртки : Прогрессивная
Бит/(Пиксели*Кадры) : 0.108
Размер потока : 868 Мбайт (87%)
Язык : English
Default : Да
Forced : Нет
Цветовой диапазон : Limited
Основные цвета : BT.709
Характеристики трансфера : BT.709
Коэффициенты матрицы : BT.709
Аудио #1
Идентификатор : 2
Формат : AC-3
Формат/Информация : Audio Coding 3
Расширение режима : CM (complete main)
Параметр Endianness формата : Big
Идентификатор кодека : A_AC3
Продолжительность : 22 м.
Вид битрейта : Постоянный
Битрейт : 384 Кбит/сек
Каналы : 6 каналов
Расположение каналов : Front: L C R, Side: L R, LFE
Частота : 48,0 КГц
Частота кадров : 31,250 кадров/сек (1536 spf)
Метод сжатия : С потерями
Размер потока : 62,2 Мбайт (6%)
Заголовок : DUB (Дублированный)
Язык : Russian
Default : Да
Forced : Нет
Аудио #2
Идентификатор : 3
Формат : AC-3
Формат/Информация : Audio Coding 3
Расширение режима : CM (complete main)
Параметр Endianness формата : Big
Идентификатор кодека : A_AC3
Продолжительность : 22 м.
Вид битрейта : Постоянный
Битрейт : 384 Кбит/сек
Каналы : 6 каналов
Расположение каналов : Front: L C R, Side: L R, LFE
Частота : 48,0 КГц
Частота кадров : 31,250 кадров/сек (1536 spf)
Метод сжатия : С потерями
Размер потока : 62,2 Мбайт (6%)
Язык : English
Default : Нет
Forced : Нет
Текст
Идентификатор : 4
Формат : UTF-8
Идентификатор кодека : S_TEXT/UTF8
Идентификатор кодека/Информация : UTF-8 Plain Text
Продолжительность : 22 м.
Битрейт : 74 бит/сек
Count of elements : 385
Размер потока : 12,0 Кбайт (0%)
Заголовок : Full
Язык : English
Default : Да
Forced : Нет




Релиз от: CergMark



   Похожие торренты   Торрент   Размер 
В этой теме нет новых непрочитанных сообщений. Селеста и Джесси навеки / Celeste & Jesse Forever (2012) BDRip 1080p | P, Р2

16 | 7

9.04 ГБ

В этой теме нет новых непрочитанных сообщений. Jessie Jones - Jessie Jones (2015) FLAC

54 | 11

257.41 МБ

В этой теме нет новых непрочитанных сообщений. Jessie J - Who You Are (2011) FLAC

4 | 1

355.78 МБ

В этой теме нет новых непрочитанных сообщений. Jessie J - Domino [Клип] (2011) HDTVRip

0 | 5

62.64 МБ

В этой теме нет новых непрочитанных сообщений. Jessie J - Nobody's Perfect [Клип] (2011) HDTVRip

0 | 2

60.85 МБ

В этой теме нет новых непрочитанных сообщений. Jessie J - Дискография (cтудийные альбомы) (2011-2014) MP3

59 | 17

412.77 МБ

В этой теме нет новых непрочитанных сообщений. Однажды в сказке / Once Upon a Time [S02] (2012) WEB-DLRip 1080p | Невафильм

40 | 18

37.79 ГБ




Вы не можете начинать темы
Вы не можете отвечать на сообщения
Вы не можете редактировать свои сообщения
Вы не можете удалять свои сообщения
Вы не можете добавлять вложения

Перейти:  
Для Мосгорсуда, Роскомнадзора и рекламодателей: mosgorsud-torrent[собачка]yandex.ru
 Вход
ppkBB3cker v.2 © 2008-2014 @ PPK
[ Time : 0.062s | 14 Queries | GZIP : Off ]

Торрент трекер RUTOR.IN, Не можете зайти на rutor.org? Какой новый адрес рутор? Какое зеркало рутор? Не работает rutor.org и зеркала? Тогда наш торрент специально для вас. Rutor.in неофициальное зеркало rutor. В случае если у Вас заблокирован rutor или вдруг Вы не можете на него зайти, то Вы без труда сможете скачать бесплатно и без рекламы последние новинки кино, игр, сериалов и прочего у нас, на Rutor.in. Не нужно использовать прокси, чтобы зайти на рутор, достаточно воспользоваться нашим ресурсом. Все новые фильмы, игры, сериалы, книги и музыка за 2013 и 2014 годы через торрент бесплатно. Скачивайте фильмы в хорошем качестве, игры для пк, xbox, playstation без регистрации. У нас вы найдете новые Зарубежные сериалы и Русские сериалы 2013, 2014, 2015 годов. Оставайтесь с нами, качайте любимые фильмы, игры, сериалы, книги и музыку.