img image001 image001 image001 image001 image001 image001 image001 image001 image001 image001 image001 image001 image001 image001 image001

Planets Sun Sun Sun
Статистика раздачи
Автор: Nickolas3434 | Размер: 580.53 МБ | Добавлен: 03 май 2016
Раздают: 7    Качают: 8
Скачать торрент
Скачать торрент
Описание торрента

СообщениеДобавлено: 03 май 2016 


Информация о фильме
Название: Цветы
Оригинальное название: Flowers
Год выхода: 2016
Жанр: драма, комедия
Режиссер: Уилл Шарп
В ролях: Оливия Колмэн, Джулиан Барратт, София Ди Мартино, Даниэль Ригби, Лейла Хофман, Уилл Шарп, Колин Хёрли, Энгус Райт
О фильме:
Комедия знакомит зрителей с неординарной семьей, остающейся единым целым, вопреки всему. Дебора - учитель музыки в школе, Моррис - преуспевает на поприще детской литературы. Эти родители стараются усмотреть за близняшками, коих зовут Эмма и Дональд. В этом же доме соседствует и мать мужа, от которой семейство хочет укрыть шаткость своих отношений. Мужа раздирают личные наклонности и тайны, а жена все время считает, что тот неравнодушен к знакомому парню-японцу, являющемся иллюстратором для всех детских сочинений.

Страна: Великобритания
Продолжительность: ~00:29:00 серия
Перевод: Любительский двухголосый [HamsterStudio]

Файл
Кодек: XviD
Качество: HDTVRip
Видео: 720x400, 991 Kbps, 25.000 fps
Звук: MP3, 128 Kbps (2 ch)
Семпл

Релиз от: HamsterStudio
General
Complete name : /home/roma/Завантажене/Flowers.s01e01e02.HDTVRip.HamsterStudio.org.avi
Format : AVI
Format/Info : Audio Video Interleave
File size : 374 MiB
Duration : 46mn 16s
Overall bit rate : 1 129 Kbps
Writing application : VirtualDubMod 1.5.10.2 (build 2540/release)
Writing library : VirtualDubMod build 2540/release
Video
ID : 0
Format : MPEG-4 Visual
Format profile : Advanced Simple@L5
Format settings, BVOP : 2
Format settings, QPel : No
Format settings, GMC : No warppoints
Format settings, Matrix : Default (H.263)
Muxing mode : Packed bitstream
Codec ID : XVID
Codec ID/Hint : XviD
Duration : 46mn 16s
Bit rate : 991 Kbps
Width : 720 pixels
Height : 400 pixels
Display aspect ratio : 16:9
Frame rate : 25.000 fps
Color space : YUV
Chroma subsampling : 4:2:0
Bit depth : 8 bits
Scan type : Progressive
Compression mode : Lossy
Bits/(Pixel*Frame) : 0.138
Stream size : 328 MiB (88%)
Writing library : XviD 67
Audio
ID : 1
Format : MPEG Audio
Format version : Version 1
Format profile : Layer 3
Mode : Joint stereo
Mode extension : MS Stereo
Codec ID : 55
Codec ID/Hint : MP3
Duration : 46mn 16s
Bit rate mode : Constant
Bit rate : 128 Kbps
Channel(s) : 2 channels
Sampling rate : 48.0 KHz
Compression mode : Lossy
Stream size : 42.4 MiB (11%)
Alignment : Aligned on interleaves
Interleave, duration : 40 ms (1.00 video frame)
Interleave, preload duration : 504 ms

Когда раздача ведётся путём добавления новых серий, при каждом добавлении создётся новый торрент. Чтобы начать докачку новой серии, пользователям необходимо сделать следующее:
(1) остановить скачивание,
(2) удалить старый торрент у себя из клиента (старые серии удалять не надо),
(3) скачать новый торрент и запустить его у себя в клиенте вместо старого, при этом указать клиенту путь в старую папку, куда и должно происходить скачивание новых серий.
Ваш клиент при этом должен произвести хеширование (проверку) старой папки (если не производит сам - помогите ему сделать это), и будет докачивать только те серии, которых у вас ещё нет. Старые серии при этом не удаляются, а продолжают раздаваться!
Eсли вы уже удалили старые серии, то предотвратить повторную закачку старых серий можно, отжав галочку в соответсвующих местах при запуске нового торрента. По возможности, желательно не удалять старые серии как можно дольше, чтобы релизёр не столько продолжал раздавать старые серии, а смог сконцентрироваться на новых.



   Похожие торренты   Торрент   Размер 
В этой теме нет новых непрочитанных сообщений. Цветы / Flowers [01x01-04 из 06] (2016) HDTVRip от HamsterStudio | L2

0 | 0

778.7 МБ

В этой теме нет новых непрочитанных сообщений. Цветы / Flowers [S01] (2016) HDTVRip от HamsterStudio | L2

15 | 5

1.19 ГБ

В этой теме нет новых непрочитанных сообщений. Цветы / Flowers [01х01-03 из 06] (2016) HDTVRip | Sunshine Studio

12 | 0

1.5 ГБ

В этой теме нет новых непрочитанных сообщений. Цветы / Flowers [01х01-03 из 06] (2016) HDTVRip | Sunshine Studio

1 | 0

1.18 ГБ

В этой теме нет новых непрочитанных сообщений. Цветы в крови / Кровавые цветы / Fleurs de sang / Flowers of Blood (2002) DVDRip | Sub

50 | 39

1.02 ГБ

В этой теме нет новых непрочитанных сообщений. Не присылай мне цветы / Send Me No Flowers (1964) HDTVRip от NovaLan

6 | 3

1.45 ГБ

В этой теме нет новых непрочитанных сообщений. Цветы войны / The Flowers of War / Jin líng shí san chai (2011) HDTVRip

10 | 2

1.36 ГБ




Вы не можете начинать темы
Вы не можете отвечать на сообщения
Вы не можете редактировать свои сообщения
Вы не можете удалять свои сообщения
Вы не можете добавлять вложения

Перейти:  
Для Мосгорсуда, Роскомнадзора и рекламодателей: mosgorsud-torrent[собачка]yandex.ru
 Вход
ppkBB3cker v.2 © 2008-2014 @ PPK
[ Time : 0.533s | 15 Queries | GZIP : Off ]

Торрент трекер RUTOR.IN, Не можете зайти на rutor.org? Какой новый адрес рутор? Какое зеркало рутор? Не работает rutor.org и зеркала? Тогда наш торрент специально для вас. Rutor.in неофициальное зеркало rutor. В случае если у Вас заблокирован rutor или вдруг Вы не можете на него зайти, то Вы без труда сможете скачать бесплатно и без рекламы последние новинки кино, игр, сериалов и прочего у нас, на Rutor.in. Не нужно использовать прокси, чтобы зайти на рутор, достаточно воспользоваться нашим ресурсом. Все новые фильмы, игры, сериалы, книги и музыка за 2013 и 2014 годы через торрент бесплатно. Скачивайте фильмы в хорошем качестве, игры для пк, xbox, playstation без регистрации. У нас вы найдете новые Зарубежные сериалы и Русские сериалы 2013, 2014, 2015 годов. Оставайтесь с нами, качайте любимые фильмы, игры, сериалы, книги и музыку.
cron