img image001 image001 image001 image001 image001 image001 image001 image001 image001 image001 image001 image001 image001 image001 image001

Planets Sun Sun Sun
Статистика раздачи
Автор: Nickolas3434 | Размер: 4.36 ГБ | Добавлен: 06 май 2016
Раздают: 26    Качают: 2
Скачать торрент
Скачать торрент
Описание торрента

СообщениеДобавлено: 06 май 2016 

Год выпуска: 2009
Страна: Россия
Студия: "Телеостров"
Жанр: драма, военный
Продолжительность: 8 серий ~ по 44-45 мин.
Перевод: не требуется
Субтитры: нет
Оригинальная аудиодорожка: русский
Режиссер: Александр Даруга
В ролях:
Владимир Стеклов, Игорь Лагутин, Анатолий Пашинин, Александр Сирин, Алексей Воробьёв, Нина Гусева, Владимир Зайцев, Александр Пашутин, Сергей Греков, Михаил Левченко, Алексей Даруга, Максим Литовченко, Максим Лагашкин, Александр Робак, Сергей Чирков, Алексей Маслов, Дмитрий Муляр, Сергей Удовик, Кирилл Гребенщиков, Максим Дрозд, Ольга Стрелецкая, Александр Баширов, Елена Казаринова...
Полный список актёров
Описание:
Август 1941 года. Немецкие войска в трёхстах километрах от Москвы. На одном из маршрутов следования первых лиц государства сотрудники Четвёртого управления НКВД обезвреживают группу немецких диверсантов, целью которой являлось физическое устранение Сталина. В момент задержания группы, диверсанты применяют неизвестное оружие «панцеркнакке», по силе действия схожее с реактивным снарядом. При задержании одному из диверсантов удается уйти, двое других – убиты, стрелявшего удалось задержать, но оружие взорвалось в момент выстрела. Как немецким диверсантам удалось так близко подойти к секретной информации о маршрутах передвижения первых лиц государства? Где находится школа подготовки диверсионной группы? Для этой цели формируется две группы. Первая должна тайно пройти по тылам противника и выйти в указанный, взятым в плен диверсантом, адрес. О существовании этой группы знают только двое - Мирзоев и Алёхин. А задание Второй группы – двигаясь по тылам противника, действовать так, чтобы отвлекать внимание немецкой разведки от группы Первых.





Исходник: DVD9 R5
Качество видео: DVDRip-AVC
Формат видео: MKV
Видео: 712->764х430 (16:9), 25 fps, H264 ~ 1533 kbps avg, 0.200 bit/pixel
Аудио: 48 kHz, Dolby Digital AC3 2.0, 192 kbps
Раздача от:
Общее
Полное имя : Vtorye.Otryad.Kochubeya.2009.DVDRip-AVC_[New-team]_by_AVP_Studio.mkv
Формат : Matroska
Версия формата : Version 2
Размер файла : 550 Мбайт
Продолжительность : 44 м.
Общий поток : 1725 Кбит/сек
Дата кодирования : UTC 2016-05-05 16:30:48
Программа кодирования : mkvmerge v6.1.0 ('Old Devil') built on Mar 4 2013 09:10:42
Библиотека кодирования : libebml v1.3.0 + libmatroska v1.4.0
Видео
Идентификатор : 1
Формат : AVC
Формат/Информация : Advanced Video Codec
Профиль формата : High@L4.1
Параметр CABAC формата : Да
Параметр ReFrames формата : 10 кадров
Идентификатор кодека : V_MPEG4/ISO/AVC
Продолжительность : 44 м.
Битрейт : 1533 Кбит/сек
Ширина : 712 пикселей
Высота : 430 пикселей
Соотношение сторон : 16:9
Соотношение сторон в оригинале : 16:9
Режим частоты кадров : Постоянный
Частота кадров : 25,000 кадров/сек
Цветовое пространство : YUV
Субдискретизация насыщенности : 4:2:0
Битовая глубина : 8 бит
Тип развёртки : Прогрессивная
Бит/(Пиксели*Кадры) : 0.200
Размер потока : 478 Мбайт (87%)
Библиотека кодирования : x264 core 148 r2597 e86f3a1
Настройки программы : cabac=1 / ref=10 / deblock=1:-2:-1 / analyse=0x3:0x113 / me=umh / subme=10 / psy=1 / psy_rd=1.00:0.00 / mixed_ref=1 / me_range=32 / chroma_me=1 / trellis=2 / 8x8dct=1 / cqm=0 / deadzone=21,11 / fast_pskip=1 / chroma_qp_offset=-2 / threads=6 / lookahead_threads=1 / sliced_threads=0 / nr=0 / decimate=0 / interlaced=0 / bluray_compat=0 / constrained_intra=0 / bframes=8 / b_pyramid=2 / b_adapt=2 / b_bias=0 / direct=3 / weightb=1 / open_gop=0 / weightp=2 / keyint=250 / keyint_min=25 / scenecut=40 / intra_refresh=0 / rc=2pass / mbtree=0 / bitrate=1533 / ratetol=1.0 / qcomp=0.60 / qpmin=0 / qpmax=69 / qpstep=4 / cplxblur=20.0 / qblur=0.5 / ip_ratio=1.40 / pb_ratio=1.30 / aq=1:1.00
Default : Да
Forced : Нет
Аудио
Идентификатор : 2
Формат : AC-3
Формат/Информация : Audio Coding 3
Расширение режима : CM (complete main)
Параметр Endianness формата : Big
Идентификатор кодека : A_AC3
Продолжительность : 44 м.
Вид битрейта : Постоянный
Битрейт : 192 Кбит/сек
Каналы : 2 канала
Расположение каналов : Front: L R
Частота : 48,0 КГц
Частота кадров : 31,250 кадров/сек (1536 spf)
Метод сжатия : С потерями
Размер потока : 61,3 Мбайт (11%)
Default : Да
Forced : Нет





   Похожие торренты   Торрент   Размер 
В этой теме нет новых непрочитанных сообщений. Вторые. Отряд Кочубея [01-08 из 08] (2009) DVDRip от New-Team

67 | 7

2.18 ГБ

В этой теме нет новых непрочитанных сообщений. Вторые. Отряд Кочубея [01-08 из 08] (2009) DVDRip от New-Team

68 | 13

4.37 ГБ

В этой теме нет новых непрочитанных сообщений. Отряд Кочубея (Вторые) [01-08 из 08] (2016) SATRip-AVC от Korsar

7 | 0

4.19 ГБ

В этой теме нет новых непрочитанных сообщений. Первый отряд. Момент истины / First Squad: The Moment Of Truth (2009) 2xDVD5 от New-Team | D | Лицензия

4 | 4

7.98 ГБ

В этой теме нет новых непрочитанных сообщений. Первый отряд. Момент истины / First Squad: The Moment Of Truth (2009) DVD5 от New-Team | D | Лицензия R2

55 | 2

3.11 ГБ

В этой теме нет новых непрочитанных сообщений. Вторые [1-8 из 8] (2010) DVDRip

244 | 21

4.69 ГБ

В этой теме нет новых непрочитанных сообщений. Отряд Трубачева сражается (1957) DVDRip-AVC от New-Team

13 | 3

1.09 ГБ




Вы не можете начинать темы
Вы не можете отвечать на сообщения
Вы не можете редактировать свои сообщения
Вы не можете удалять свои сообщения
Вы не можете добавлять вложения

Перейти:  
Для Мосгорсуда, Роскомнадзора и рекламодателей: mosgorsud-torrent[собачка]yandex.ru
 Вход
ppkBB3cker v.2 © 2008-2014 @ PPK
[ Time : 0.045s | 16 Queries | GZIP : Off ]

cron