img image001 image001 image001 image001 image001 image001 image001 image001 image001 image001 image001 image001 image001 image001 image001

Planets Sun Sun Sun
Статистика раздачи
Автор: Nickolas3434 | Размер: 1.91 ГБ | Добавлен: 07 май 2016
Раздают: 2    Качают: 1
Скачать торрент
Скачать торрент
Описание торрента

СообщениеДобавлено: 07 май 2016 


Информация о фильме
Название: Колония
Оригинальное название: Colony
Год выхода: 2015
Жанр: Фантастика
Режиссер: Хуан Хосе Кампанелла, Нельсон МакКормик, Скотт Питерс
В ролях: Джош Холлоуэй, Сара Уэйн Кэллис, Питер Джекобсон, Аманда Ригетти, Тори Киттлз, Алекс Нюстадтер, Изабелла Крамп, Ким Родс, Гонсало Менендес, Пол Гилфойл, Кэтлин Роуз Перкинс, Карл Уэзерс, Элли Уокер, Джейкоб Варгас, Кэтрин Моррис, Адриан Пасдар, Мэри Боннер Бэйкер
О фильме:
События в сериале разворачиваются в недалеком будущем. Лос-Анджелес с жителями оккупирован и находится под контролем нового правительства. Часть жителей смирилась с новым порядком и пытается наладить жизнь в новых условиях, другая часть выбрала путь повстанцев и сопротивления режиму. В центре событий Бывший агент ФБР Уилл Боумэн и его супруга Кейти. Это семья потерявшая сына во время вторжения. Уилл и Кэйт готовы сделать все необходимое, чтобы вернуть сына домой. И даже принять предложение о сотрудничестве от главы оккупационного правительства Прокси Снайдера. Соглашаясь на сотрудничество они и не могли предположить о последствиях, которые превратят их жизнь в сплошной кошмар.

Страна: США
Студия: Legendary Television
Продолжительность: 10 x ~ 00:50:00
Перевод: Профессиональный (многоголосый, закадровый) [NewStudio]
Файл
Формат: MP4
Качество: WEBRip | КПК
Видео: MPEG-4 AVC (x264), 640x360, ~500 kbps, 23.976 fps
Аудио: AAC LC, 48.0 KHz, 2 ch, 128 Kbps
Субтитры: Нет
Семпл

Complete name : E:KinoKoloniya.AVC.KPK.GFKoloniya..S01.2015.AVC.WEB-DLRip.KPK.NS.GFKoloniya..s01e03.2015.AVC.WEB-DLRip.KPK.NS.GF.mp4
Format : MPEG-4
Codec ID : M4V (isom/iso2/avc1)
File size : 191 MiB
Duration : 42mn 7s
Overall bit rate mode : Variable
Overall bit rate : 634 Kbps
Writing application : Lavf53.19.0
Video
ID : 1
Format : AVC
Format/Info : Advanced Video Codec
Format profile : High@L4.1
Format settings, CABAC : Yes
Format settings, ReFrames : 8 frames
Codec ID : avc1
Codec ID/Info : Advanced Video Coding
Duration : 42mn 7s
Source duration : 13mn 29s
Bit rate : 500 Kbps
Width : 640 pixels
Height : 360 pixels
Display aspect ratio : 16:9
Frame rate mode : Constant
Frame rate : 23.976 fps
Color space : YUV
Chroma subsampling : 4:2:0
Bit depth : 8 bits
Scan type : Progressive
Bits/(Pixel*Frame) : 0.091
Stream size : 151 MiB (79%)
Source stream size : 151 MiB (79%)
Writing library : x264 core 130 r2273 b3065e6
Encoding settings : cabac=1 / ref=8 / deblock=1:-2:-2 / analyse=0x3:0x133 / me=umh / subme=10 / psy=1 / psy_rd=1.00:0.00 / mixed_ref=1 / me_range=24 / chroma_me=1 / trellis=2 / 8x8dct=1 / cqm=0 / deadzone=21,11 / fast_pskip=1 / chroma_qp_offset=-2 / threads=12 / lookahead_threads=2 / sliced_threads=0 / nr=0 / decimate=0 / interlaced=0 / bluray_compat=0 / constrained_intra=0 / bframes=8 / b_pyramid=2 / b_adapt=2 / b_bias=0 / direct=3 / weightb=1 / open_gop=0 / weightp=2 / keyint=240 / keyint_min=121 / scenecut=40 / intra_refresh=0 / rc_lookahead=40 / rc=2pass / mbtree=1 / bitrate=500 / ratetol=1.0 / qcomp=0.60 / qpmin=0 / qpmax=69 / qpstep=4 / cplxblur=20.0 / qblur=0.5 / ip_ratio=1.40 / aq=1:1.00
Menus : 3
mdhd_Duration : 2527195
Audio
ID : 2
Format : AAC
Format/Info : Advanced Audio Codec
Format profile : LC
Codec ID : 40
Duration : 42mn 7s
Bit rate mode : Variable
Bit rate : 128 Kbps
Channel(s) : 2 channels
Channel positions : Front: L R
Sampling rate : 48.0 KHz
Frame rate : 46.875 fps (1024 spf)
Compression mode : Lossy
Stream size : 38.5 MiB (20%)
Default : Yes
Alternate group : 1
Menus : 3

Релиз от:



   Похожие торренты   Торрент   Размер 
В этой теме нет новых непрочитанных сообщений. Колония / Colony [01х01 из 10] (2016) WEB-DLRip | NewStudio

117 | 24

599.41 МБ

В этой теме нет новых непрочитанных сообщений. Колония, 1 сезон 1-4 серии из 10 / Colony [NewStudio] (Райан Кондал, Карлтон Кьюз) [2015-2016, фантастика, боевик, триллер, WEB-DLRip, P]

342 | 411

2.18 ГБ

В этой теме нет новых непрочитанных сообщений. Колония, 1 сезон 1-2 серии из 10 / Colony [NewStudio] (Райан Кондал, Карлтон Кьюз) [2015-2016, фантастика, боевик, триллер, WEB-DLRip, P]

407 | 281

1.12 ГБ

В этой теме нет новых непрочитанных сообщений. Колония / Colony [01х01 из 10] (2015) WEBRip | NewStudio

949 | 32

699.92 МБ

В этой теме нет новых непрочитанных сообщений. Колония / Colony [01х01 из 10] (2015) WEBRip 720p | NewStudio

58 | 7

1.66 ГБ

В этой теме нет новых непрочитанных сообщений. Колония / Colony [01х01 из 10] (2015-2016) WEB-DL 1080p | NewStudio

120 | 7

1.48 ГБ

В этой теме нет новых непрочитанных сообщений. Колония / Colony [01х01 из 10] (2015) WEBRip 720p | NewStudio

748 | 14

1.12 ГБ




Вы не можете начинать темы
Вы не можете отвечать на сообщения
Вы не можете редактировать свои сообщения
Вы не можете удалять свои сообщения
Вы не можете добавлять вложения

Перейти:  
Для Мосгорсуда, Роскомнадзора и рекламодателей: mosgorsud-torrent[собачка]yandex.ru
 Вход
ppkBB3cker v.2 © 2008-2014 @ PPK
[ Time : 0.071s | 14 Queries | GZIP : Off ]

Торрент трекер RUTOR.IN, Не можете зайти на rutor.org? Какой новый адрес рутор? Какое зеркало рутор? Не работает rutor.org и зеркала? Тогда наш торрент специально для вас. Rutor.in неофициальное зеркало rutor. В случае если у Вас заблокирован rutor или вдруг Вы не можете на него зайти, то Вы без труда сможете скачать бесплатно и без рекламы последние новинки кино, игр, сериалов и прочего у нас, на Rutor.in. Не нужно использовать прокси, чтобы зайти на рутор, достаточно воспользоваться нашим ресурсом. Все новые фильмы, игры, сериалы, книги и музыка за 2013 и 2014 годы через торрент бесплатно. Скачивайте фильмы в хорошем качестве, игры для пк, xbox, playstation без регистрации. У нас вы найдете новые Зарубежные сериалы и Русские сериалы 2013, 2014, 2015 годов. Оставайтесь с нами, качайте любимые фильмы, игры, сериалы, книги и музыку.