img image001 image001 image001 image001 image001 image001 image001 image001 image001 image001 image001 image001 image001 image001 image001

Planets Sun Sun Sun
Статистика раздачи
Автор: Nickolas3434 | Размер: 2.15 ГБ | Добавлен: 08 май 2016
Раздают: 206    Качают: 2
Скачать торрент
Скачать торрент
Описание торрента

СообщениеДобавлено: 08 май 2016 


Информация о фильме
Оригинальное название: Весеннее обострение
Год выпуска: 2015
Жанр: Комедия
Режиссер: Марина Мигунова
В ролях: Максим Виторган, Валентин Смирнитский, Александр Олешко, Алика Смехова, Янина Соколовская
О фильме: Костя Мелехин преподает биологию в школе. У него нет ни жены, ни девушки. И хоть Костя живет отдельно от матери, но в ближайшем будущем ему светит перспектива поселиться с ней под одной крышей, потому что матушка решила продать свою квартиру и квартиру сына и купить большой дом. Единственный выход, который видит Константин — срочно жениться, потому что с невесткой мать жить не захочет. Вот здесь-то и начинаются самые большие трудности, ведь найти подходящую девушку не так-то просто...
Страна: Россия
Студия: СинеЛаб Продакшн
Продолжительность: 4 х ~ 00:45:00
Перевод: не требуется
Файл
Качество: HDTVRip
Видео: XviD, ~ 1550 Кбит/с, 720x400
Аудио: АС3, 2 ch, 192 Кбит/с
General
Complete name : X:раздачиВесеннее обострение.2016.HDTVRip.RG.Russkie.serialy.&.Files-x\02.Весеннее обострение.2016.HDTVRip.RG.Russkie.serialy.&.Files-x.avi
Format : AVI
Format/Info : Audio Video Interleave
File size : 549 MiB
Duration : 43mn 22s
Overall bit rate : 1 771 Kbps
Writing application : VirtualDubMod 1.5.10.3 | www.virtualdub-fr.org || (build 2550/release)
Writing library : VirtualDubMod build 2550/release
Video
ID : 0
Format : MPEG-4 Visual
Format profile : Advanced Simple@L5
Format settings, BVOP : 1
Format settings, QPel : No
Format settings, GMC : No warppoints
Format settings, Matrix : Custom
Codec ID : XVID
Codec ID/Hint : XviD
Duration : 43mn 22s
Bit rate : 1 569 Kbps
Width : 720 pixels
Height : 400 pixels
Display aspect ratio : 16:9
Frame rate : 25.000 fps
Color space : YUV
Chroma subsampling : 4:2:0
Bit depth : 8 bits
Scan type : Progressive
Compression mode : Lossy
Bits/(Pixel*Frame) : 0.218
Stream size : 487 MiB (89%)
Writing library : XviD 73
Audio
ID : 1
Format : AC-3
Format/Info : Audio Coding 3
Mode extension : CM (complete main)
Format settings, Endianness : Big
Codec ID : 2000
Duration : 43mn 22s
Bit rate mode : Constant
Bit rate : 192 Kbps
Channel(s) : 2 channels
Channel positions : Front: L R
Sampling rate : 48.0 KHz
Frame rate : 31.250 fps (1536 spf)
Compression mode : Lossy
Stream size : 59.6 MiB (11%)
Alignment : Split accross interleaves
Interleave, duration : 40 ms (1.00 video frame)
Interleave, preload duratio : 500 ms




Релиз от:



   Похожие торренты   Торрент   Размер 
В этой теме нет новых непрочитанных сообщений. Весеннее обострение [01-04 из 04] (2015) HDTVRip-AVC от Files-x

76 | 7

2.71 ГБ

В этой теме нет новых непрочитанных сообщений. Весеннее обострение [01-04 из 04] (2015) HDTVRip от GeneralFilm

8 | 2

1.45 ГБ

В этой теме нет новых непрочитанных сообщений. Весеннее обострение [01-04 из 04] (2016) SATRip от РиперАМ

1334 | 126

2.01 ГБ

В этой теме нет новых непрочитанных сообщений. Лихорадка: Весеннее обострение / Cabin Fever 2: Spring Fever (2009) HDRip | Лицензия

8 | 5

701.67 МБ

В этой теме нет новых непрочитанных сообщений. Лихорадка: Весеннее обострение / Cabin Fever 2: Spring Fever (2009) HDRip | Лицензия

72 | 6

1.37 ГБ

В этой теме нет новых непрочитанных сообщений. VA - Весеннее созвездие хитов. Версия 2 (2015) MP3

304 | 16

670.25 МБ

В этой теме нет новых непрочитанных сообщений. Сборник - 50x50. Весеннее созвездие хитов (2015) MP3

442 | 34

673.68 МБ




Вы не можете начинать темы
Вы не можете отвечать на сообщения
Вы не можете редактировать свои сообщения
Вы не можете удалять свои сообщения
Вы не можете добавлять вложения

Перейти:  
Для Мосгорсуда, Роскомнадзора и рекламодателей: mosgorsud-torrent[собачка]yandex.ru
 Вход
ppkBB3cker v.2 © 2008-2014 @ PPK
[ Time : 0.028s | 15 Queries | GZIP : Off ]

Торрент трекер RUTOR.IN, Не можете зайти на rutor.org? Какой новый адрес рутор? Какое зеркало рутор? Не работает rutor.org и зеркала? Тогда наш торрент специально для вас. Rutor.in неофициальное зеркало rutor. В случае если у Вас заблокирован rutor или вдруг Вы не можете на него зайти, то Вы без труда сможете скачать бесплатно и без рекламы последние новинки кино, игр, сериалов и прочего у нас, на Rutor.in. Не нужно использовать прокси, чтобы зайти на рутор, достаточно воспользоваться нашим ресурсом. Все новые фильмы, игры, сериалы, книги и музыка за 2013 и 2014 годы через торрент бесплатно. Скачивайте фильмы в хорошем качестве, игры для пк, xbox, playstation без регистрации. У нас вы найдете новые Зарубежные сериалы и Русские сериалы 2013, 2014, 2015 годов. Оставайтесь с нами, качайте любимые фильмы, игры, сериалы, книги и музыку.