img image001 image001 image001 image001 image001 image001 image001 image001 image001 image001 image001 image001 image001 image001 image001

Planets Sun Sun Sun
Статистика раздачи
Автор: Nickolas3434 | Размер: 2.16 ГБ | Добавлен: 08 май 2016
Раздают: 262    Качают: 25
Скачать торрент
Скачать торрент
Описание торрента

СообщениеДобавлено: 08 май 2016 

Страна: Россия
Производство: CTC Media
Жанр: военный, история
Год выпуска: 2016
Продолжительность: 03:02:08 (00:48:20 + 00:47:32 + 00:40:12 + 00:46:06)
Перевод: не требуется
Субтитры: нет
Оригинальная аудиодорожка: русский
Режиссер: Никита Лойк, Константин Райх
В ролях:
Светлана Глазырина, Снежана Прудько, Инна Егорова, Мария Синяева, Антон Гуляев, Павел Гончаров, Леонид Паршин...
Описание:
Во время Великой Отечественной войны не было значения, кто держит автомат в руках, мужчина или женщина. По сути, за освобождение Родины сражались все советские люди, в том числе и дети. Женщины в фильме "Свидание с войной" научились ненавидеть и убивать своих врагов, но жизнь даже в военное время была тесно связана с бытовыми проблемами. Девушки выходили замуж, рожали детей. И все это происходило под залп орудия. На свидания они бегали в окопы, а вместо дорогого подарка была банка тушенки. Конечно, хрупкие дамы на фронте смотрелись нелепо в тяжелых сапогах. Но они сражались за любовь к Родине, за будущее своих детей.





Исходник: HDTVRip 720p
Качество: HDTVRip
Формат: AVI
Видео: 720x400 (16:9), 25 fps, XviD ~ 1493 kbps avg, 0.216 bit/pixel
Аудио: 48 kHz, Dolby Digital AC3 2.0, 192 kbps
Раздача от:
01. Сестрички
02. Любовь в оккупации
03. Спасайся кто может
04. Они тоже сражались за родину

Общее
Полное имя : Svidanie.s.voynoy.2016.HDTVRip_[New-team]_by_AVP_Studio.avi
Формат : AVI
Формат/Информация : Audio Video Interleave
Размер файла : 586 Мбайт
Продолжительность : 48 м.
Общий поток : 1695 Кбит/сек
Программа кодирования : VirtualDubMod 1.5.10.3 | www.virtualdub-fr.org || (build 2550/release)
Библиотека кодирования : VirtualDubMod build 2550/release
Видео
Идентификатор : 0
Формат : MPEG-4 Visual
Профиль формата : Advanced Simple@L5
Параметр BVOP формата : 1
Параметр QPel формата : Нет
Параметр GMC формата : Без точки перехода
Параметр матрицы формата : Выборочная
Идентификатор кодека : XVID
Идентификатор кодека/Подсказка : XviD
Продолжительность : 48 м.
Битрейт : 1493 Кбит/сек
Ширина : 720 пикселей
Высота : 400 пикселей
Соотношение сторон : 16:9
Частота кадров : 24,000 кадра/сек
Цветовое пространство : YUV
Субдискретизация насыщенности : 4:2:0
Битовая глубина : 8 бит
Тип развёртки : Прогрессивная
Метод сжатия : С потерями
Бит/(Пиксели*Кадры) : 0.216
Размер потока : 516 Мбайт (88%)
Библиотека кодирования : XviD 1.2.1 (UTC 2008-12-04)
Аудио
Идентификатор : 1
Формат : AC-3
Формат/Информация : Audio Coding 3
Расширение режима : CM (complete main)
Параметр Endianness формата : Big
Идентификатор кодека : 2000
Продолжительность : 48 м.
Вид битрейта : Постоянный
Битрейт : 192 Кбит/сек
Каналы : 2 канала
Расположение каналов : Front: L R
Частота : 48,0 КГц
Частота кадров : 31,250 кадров/сек (1536 spf)
Метод сжатия : С потерями
Размер потока : 66,4 Мбайт (11%)
Выравнивание : Разделение по промежуткам
Продолжительность промежутка : 42 мс. (1,00 видеокадр)
Время предзагрузки промежутка : 500 мс





   Похожие торренты   Торрент   Размер 
В этой теме нет новых непрочитанных сообщений. Свидание с войной [01-04 из 04] (2016) HDTVRip-AVC от New-Team

295 | 11

2.87 ГБ

В этой теме нет новых непрочитанных сообщений. Свидание со звездой / Выиграй свидание с Тедом Хамильтоном / Win a Date with Tad Hamilton (2004) HDTVRip-AVC от NovaLan

44 | 13

2.2 ГБ

В этой теме нет новых непрочитанных сообщений. Свидание в Бре / Свидание в Брэ / Rendez-vous à Bray (1971) DVDRip от pro100shara

142 | 132

1.58 ГБ

В этой теме нет новых непрочитанных сообщений. Свидание на млечном пути (1985) SATRip-AVC от New-Team

22 | 2

744.05 МБ

В этой теме нет новых непрочитанных сообщений. Свидание на млечном пути (1985) SATRip от New-Team

16 | 1

745.38 МБ

В этой теме нет новых непрочитанных сообщений. Дом. Свидание с планетой / Home (2009) BDRip 1080p от NOLIMITS-TEAM

0 | 2

4.29 ГБ

В этой теме нет новых непрочитанных сообщений. Дом. Свидание с планетой / Home (2009) BDRip 720p от NOLIMITS-TEAM | Long Version

0 | 2

4.45 ГБ




Вы не можете начинать темы
Вы не можете отвечать на сообщения
Вы не можете редактировать свои сообщения
Вы не можете удалять свои сообщения
Вы не можете добавлять вложения

Перейти:  
Для Мосгорсуда, Роскомнадзора и рекламодателей: mosgorsud-torrent[собачка]yandex.ru
 Вход
ppkBB3cker v.2 © 2008-2014 @ PPK
[ Time : 0.040s | 15 Queries | GZIP : On ]

Торрент трекер RUTOR.IN, Не можете зайти на rutor.org? Какой новый адрес рутор? Какое зеркало рутор? Не работает rutor.org и зеркала? Тогда наш торрент специально для вас. Rutor.in неофициальное зеркало rutor. В случае если у Вас заблокирован rutor или вдруг Вы не можете на него зайти, то Вы без труда сможете скачать бесплатно и без рекламы последние новинки кино, игр, сериалов и прочего у нас, на Rutor.in. Не нужно использовать прокси, чтобы зайти на рутор, достаточно воспользоваться нашим ресурсом. Все новые фильмы, игры, сериалы, книги и музыка за 2013 и 2014 годы через торрент бесплатно. Скачивайте фильмы в хорошем качестве, игры для пк, xbox, playstation без регистрации. У нас вы найдете новые Зарубежные сериалы и Русские сериалы 2013, 2014, 2015 годов. Оставайтесь с нами, качайте любимые фильмы, игры, сериалы, книги и музыку.