img image001 image001 image001 image001 image001 image001 image001 image001 image001 image001 image001 image001 image001 image001 image001

Planets Sun Sun Sun
Статистика раздачи
Автор: Nickolas3434 | Размер: 5.75 ГБ | Добавлен: 15 май 2016
Раздают: 2    Качают: 0
Скачать торрент
Скачать торрент
Описание торрента

СообщениеДобавлено: 15 май 2016 


Информация о фильме
Название: Инспектор Джордж Джентли
Оригинальное название: Inspector George Gently
Год выхода: 2014
Жанр: Детектив, криминал, драма
Режиссер: Питер Фланнери
В ролях: Мартин Шоу, Ли Инглби, Филип Дэвис, Шон Эванс, Кристиан Кук, Шон МакГинли, Альваро Лучези, Сьюзи Лоулор, Оуэн Роу
О фильме:
Действие шестого сезона британского сериала «Инспектор Джордж Джентли» разворачивается в 1969 году, примерно через полгода после перестрелки в Даремском соборе. Поправившись после ранения, старший инспектор Джордж Джентли пытается удержать своего сержанта – Джона Бахуса – от увольнения и требует поработать с ним еще месяц, пока будут оформлены все бумаги. Их новым делом становится расследование гибели одного арестанта в полицейском участке Ньюкасла.

Страна: Великобритания
Студия: British Broadcasting Corporation (BBC), Company Pictures, Element Pictures
Продолжительность: 4 x ~ 01:28:30
Перевод: Любительский одноголосый (DexterTV)
Файл
Кодек: x264
Качество: WEB-DLRip 720p
Видео: MPEG-4 AVC, ~ 2000 Кбит/с, 1280x720, 25 кадр/с
Аудио #1: MP3, 2 ch, 192 Кбит/с | Русский
Аудио #2: AC3, 2 ch, 192 Кбит/с | Английский
Общее
Уникальный идентификатор : 202071567535986227584220897468807405918 (0x9805917AF94F96C2B90AA81ECE0C615E)
Полное имя : george.gently.s06e03.720p.mkv
Формат : Matroska
Версия формата : Version 4 / Version 2
Размер файла : 1,48 Гбайт
Продолжительность : 1 ч. 28 м.
Общий поток : 2388 Кбит/сек
Дата кодирования : UTC 2016-05-13 19:05:39
Программа кодирования : mkvmerge v7.7.0 ('Six Voices') 32bit built on Feb 28 2015 23:23:00
Библиотека кодирования : libebml v1.3.1 + libmatroska v1.4.2
DURATION : 01:28:30.912000000
NUMBER_OF_FRAMES : 165966
NUMBER_OF_BYTES : 127461888
_STATISTICS_WRITING_APP : mkvmerge v7.7.0 ('Six Voices') 32bit built on Feb 28 2015 23:23:00
_STATISTICS_WRITING_DATE_UTC : 2016-05-13 19:05:39
_STATISTICS_TAGS : BPS DURATION NUMBER_OF_FRAMES NUMBER_OF_BYTES
Видео
Идентификатор : 1
Формат : AVC
Формат/Информация : Advanced Video Codec
Профиль формата : High@L4.1
Параметр CABAC формата : Да
Параметр ReFrames формата : 5 кадров
Идентификатор кодека : V_MPEG4/ISO/AVC
Продолжительность : 1 ч. 28 м.
Битрейт : 1956 Кбит/сек
Ширина : 1280 пикселей
Высота : 720 пикселей
Соотношение сторон : 16:9
Режим частоты кадров : Постоянный
Частота кадров : 25,000 кадров/сек
Цветовое пространство : YUV
Субдискретизация насыщенности : 4:2:0
Битовая глубина : 8 бит
Тип развёртки : Прогрессивная
Бит/(Пиксели*Кадры) : 0.085
Размер потока : 1,21 Гбайт (82%)
Библиотека кодирования : x264 core 142 r2389 956c8d8
Настройки программы : cabac=1 / ref=5 / deblock=1:0:0 / analyse=0x3:0x113 / me=umh / subme=8 / psy=1 / psy_rd=1.00:0.00 / mixed_ref=1 / me_range=16 / chroma_me=1 / trellis=1 / 8x8dct=1 / cqm=0 / deadzone=21,11 / fast_pskip=1 / chroma_qp_offset=-2 / threads=12 / lookahead_threads=2 / sliced_threads=0 / nr=0 / decimate=1 / interlaced=0 / bluray_compat=0 / constrained_intra=0 / bframes=3 / b_pyramid=2 / b_adapt=2 / b_bias=0 / direct=3 / weightb=1 / open_gop=0 / weightp=2 / keyint=250 / keyint_min=25 / scenecut=40 / intra_refresh=0 / rc_lookahead=50 / rc=crf / mbtree=1 / crf=19.0 / qcomp=0.60 / qpmin=0 / qpmax=69 / qpstep=4 / ip_ratio=1.40 / aq=1:1.00
Default : Да
Forced : Нет
Аудио #1
Идентификатор : 2
Формат : MPEG Audio
Версия формата : Version 1
Профиль формата : Layer 3
Режим : Joint stereo
Идентификатор кодека : A_MPEG/L3
Идентификатор кодека/Подсказка : MP3
Продолжительность : 1 ч. 28 м.
Вид битрейта : Постоянный
Битрейт : 192 Кбит/сек
Каналы : 2 канала
Частота : 48,0 КГц
Метод сжатия : С потерями
Задержка видео : 14 мс.
Размер потока : 122 Мбайт (8%)
Язык : Russian
Default : Нет
Forced : Нет
Аудио #2
Идентификатор : 3
Формат : AC-3
Формат/Информация : Audio Coding 3
Расширение режима : CM (complete main)
Параметр Endianness формата : Big
Идентификатор кодека : A_AC3
Продолжительность : 1 ч. 28 м.
Вид битрейта : Постоянный
Битрейт : 192 Кбит/сек
Каналы : 2 канала
Расположение каналов : Front: L R
Частота : 48,0 КГц
Метод сжатия : С потерями
Размер потока : 122 Мбайт (8%)
Заголовок : English
Язык : English
Default : Да
Forced : Нет



   Похожие торренты   Торрент   Размер 
В этой теме нет новых непрочитанных сообщений. Инспектор Джордж Джентли / Inspector George Gently [s06] (2014) HDTVRip от Koenig | P

10 | 1

5.34 ГБ

В этой теме нет новых непрочитанных сообщений. Инспектор Джордж Джентли / Inspector George Gently [S08] (2017) HDTVRip 720p | SunshineStudio

3 | 1

2.55 ГБ

В этой теме нет новых непрочитанных сообщений. Инспектор Джордж Джентли / Inspector George Gently [08х01 из 2] (2017) HDTVRip 720p | SunshineStudio

4 | 0

1.17 ГБ

В этой теме нет новых непрочитанных сообщений. Инспектор Джордж Джентли / Inspector George Gently [s01-05] (2007-2012) BDRip 720p от HDClub

0 | 3

55.03 ГБ

В этой теме нет новых непрочитанных сообщений. Инспектор Джордж Джентли / Inspector George Gently [s01-05] (2007-2012) BDRip от DeathN2

46 | 10

21.83 ГБ

В этой теме нет новых непрочитанных сообщений. Детективное агентство Дирка Джентли / Dirk Gently's Holistic Detective Agency [S01] (2016) WEB-DLRip 720p | IdeaFilm

24 | 3

11.04 ГБ

В этой теме нет новых непрочитанных сообщений. Детективное агентство Дирка Джентли / Dirk Gently's Holistic Detective Agency [01x01 из 08] (2016) WEB-DLRip 720p | ViruseProject

0 | 0

1.24 ГБ




Вы не можете начинать темы
Вы не можете отвечать на сообщения
Вы не можете редактировать свои сообщения
Вы не можете удалять свои сообщения
Вы не можете добавлять вложения

Перейти:  
Для Мосгорсуда, Роскомнадзора и рекламодателей: mosgorsud-torrent[собачка]yandex.ru
 Вход
ppkBB3cker v.2 © 2008-2014 @ PPK
[ Time : 0.254s | 18 Queries | GZIP : Off ]

cron