img image001 image001 image001 image001 image001 image001 image001 image001 image001 image001 image001 image001 image001 image001 image001

Planets Sun Sun Sun
Статистика раздачи
Автор: Nickolas3434 | Размер: 1.47 ГБ | Добавлен: 16 май 2016
Раздают: 29    Качают: 11
Скачать торрент
Скачать торрент
Описание торрента

СообщениеДобавлено: 16 май 2016 


Информация о фильме
Название: Даркнет
Оригинальное название: Darknet
Год выхода: 2013
Жанр: ужасы, триллер
Режиссер: Родриго Гудиньо, Винченцо Натали, Джереми Болл
В ролях: Мишель Александр, Кэрлин Бёрчел, Саманта Вайнштейн, Уилл Боус, Жеден Каннателли, Джонатан Голдэппл, Дэвид Хьюлетт
О фильме:
Даркнет - сериал ужасов. Каждый эпизод включает в себя несколько историй, сюжет которых связан с разными людьми, попадающими в страшные ситуации. Каждая история связана с веб-сайтом под названием "Darknet", где люди могут задать вопросы или ответы на различные темы, например, как избавиться о трупа.

Страна: Канада
Продолжительность: ~00:25:00 серия
Перевод: Любительский двухголосый [HamsterStudio]
Файл
Кодек: XviD
Качество: WEBRip
Видео: 720x400, 1 206 Kbps, 29.970 (29970/1000) fps
Звук: MP3, 128 Kbps (2 ch)
Семпл

General
Complete name : /home/roma/Відео/Даркнет (Darknet )/Darknet.s01e01.WEBRip.HamsterStudio.avi
Format : AVI
Format/Info : Audio Video Interleave
File size : 251 MiB
Duration : 26mn 4s
Overall bit rate : 1 346 Kbps
Writing application : VirtualDubModRus 1.5.10.2 (build 2540/release)
Writing library : VirtualDubMod build 2540/release
Video
ID : 0
Format : MPEG-4 Visual
Format profile : Advanced Simple@L5
Format settings, BVOP : 1
Format settings, QPel : No
Format settings, GMC : No warppoints
Format settings, Matrix : Default (H.263)
Codec ID : XVID
Codec ID/Hint : XviD
Duration : 26mn 4s
Bit rate : 1 206 Kbps
Width : 720 pixels
Height : 400 pixels
Display aspect ratio : 16:9
Frame rate : 29.970 (29970/1000) fps
Color space : YUV
Chroma subsampling : 4:2:0
Bit depth : 8 bits
Scan type : Progressive
Compression mode : Lossy
Bits/(Pixel*Frame) : 0.140
Stream size : 225 MiB (90%)
Writing library : XviD 1.2.1 (UTC 2008-12-04)
Audio
ID : 1
Format : MPEG Audio
Format version : Version 1
Format profile : Layer 3
Mode : Joint stereo
Mode extension : MS Stereo
Codec ID : 55
Codec ID/Hint : MP3
Duration : 26mn 4s
Bit rate mode : Constant
Bit rate : 128 Kbps
Channel(s) : 2 channels
Sampling rate : 44.1 KHz
Compression mode : Lossy
Stream size : 23.9 MiB (10%)
Alignment : Split accross interleaves
Interleave, duration : 33 ms (1.00 video frame)
Interleave, preload duration : 500 ms

Релиз от: HamsterStudio



   Похожие торренты   Торрент   Размер 
В этой теме нет новых непрочитанных сообщений. Даркнет / Darknet [01x01-04 из 06] (2013) WEBRip от HamsterStudio | L2

0 | 0

1005.04 МБ

В этой теме нет новых непрочитанных сообщений. Даркнет / Darknet [01x01-02 из 06] (2013) WEBRip от HamsterStudio | L2

2 | 1

502.32 МБ

В этой теме нет новых непрочитанных сообщений. Параллели / Parallels (2015) WEBRip | HamsterStudio

1963 | 70

1.02 ГБ

В этой теме нет новых непрочитанных сообщений. Босх / Bosch [S02] (2016) WEBRip от HamsterStudio | L2

364 | 228

4.89 ГБ

В этой теме нет новых непрочитанных сообщений. Верь / Believe [01x01] (2014) WEBRip | HamsterStudio

161 | 72

500.61 МБ

В этой теме нет новых непрочитанных сообщений. Постфактум / The After [01х01] (2014) WEBRip 720p | HamsterStudio

11 | 3

1.56 ГБ

В этой теме нет новых непрочитанных сообщений. Босх / Bosch [02x01-08 из 10] (2016) WEBRip от HamsterStudio | L2

96 | 123

3.91 ГБ




Вы не можете начинать темы
Вы не можете отвечать на сообщения
Вы не можете редактировать свои сообщения
Вы не можете удалять свои сообщения
Вы не можете добавлять вложения

Перейти:  
Для Мосгорсуда, Роскомнадзора и рекламодателей: mosgorsud-torrent[собачка]yandex.ru
 Вход
ppkBB3cker v.2 © 2008-2014 @ PPK
[ Time : 0.033s | 15 Queries | GZIP : Off ]

Торрент трекер RUTOR.IN, Не можете зайти на rutor.org? Какой новый адрес рутор? Какое зеркало рутор? Не работает rutor.org и зеркала? Тогда наш торрент специально для вас. Rutor.in неофициальное зеркало rutor. В случае если у Вас заблокирован rutor или вдруг Вы не можете на него зайти, то Вы без труда сможете скачать бесплатно и без рекламы последние новинки кино, игр, сериалов и прочего у нас, на Rutor.in. Не нужно использовать прокси, чтобы зайти на рутор, достаточно воспользоваться нашим ресурсом. Все новые фильмы, игры, сериалы, книги и музыка за 2013 и 2014 годы через торрент бесплатно. Скачивайте фильмы в хорошем качестве, игры для пк, xbox, playstation без регистрации. У нас вы найдете новые Зарубежные сериалы и Русские сериалы 2013, 2014, 2015 годов. Оставайтесь с нами, качайте любимые фильмы, игры, сериалы, книги и музыку.