img image001 image001 image001 image001 image001 image001 image001 image001 image001 image001 image001 image001 image001 image001 image001

Planets Sun Sun Sun
Статистика раздачи
Автор: Nickolas3434 | Размер: 1.19 ГБ | Добавлен: 17 май 2016
Раздают: 37    Качают: 9
Скачать торрент
Скачать торрент
Описание торрента

СообщениеДобавлено: 17 май 2016 


Информация о фильме
Название: Сожители
Оригинальное название: Crashing
Год выхода: 2016
Жанр: комедия
Режиссер: Джордж Кэйн
В ролях: Фиби Уоллер-Бридж, Джонатан Бэйли, Джули Дрей, Луиз Форд, Дэмиен Молони, Эдриан Скарборо, Амит Шах
О фильме:
Группа молодых людей присматривает за неким заброшенным госпиталем, проживая в нем за минимальную арендную плату.

Страна: Великобритания
Продолжительность: ~00:25:00 серия
Перевод: Любительский двухголосый [HamsterStudio]
Файл
Кодек: XviD
Качество: HDTVRip
Видео: 720x400, 1 087 Kbps, 25.000 fps
Звук: MP3, 128 кб/с (2 ch)
General
Complete name : /home/roma/Відео/Сожители (Crashing)/Crashing.s01e01.avi
Format : AVI
Format/Info : Audio Video Interleave
File size : 214 MiB
Duration : 24mn 25s
Overall bit rate : 1 225 Kbps
Writing application : VirtualDubMod 1.5.10.2 (build 2540/release)
Writing library : VirtualDubMod build 2540/release
Video
ID : 0
Format : MPEG-4 Visual
Format profile : Advanced Simple@L5
Format settings, BVOP : 2
Format settings, QPel : No
Format settings, GMC : No warppoints
Format settings, Matrix : Default (H.263)
Muxing mode : Packed bitstream
Codec ID : XVID
Codec ID/Hint : XviD
Duration : 24mn 25s
Bit rate : 1 087 Kbps
Width : 720 pixels
Height : 400 pixels
Display aspect ratio : 16:9
Frame rate : 25.000 fps
Original frame rate : 25.044 fps
Color space : YUV
Chroma subsampling : 4:2:0
Bit depth : 8 bits
Scan type : Progressive
Compression mode : Lossy
Bits/(Pixel*Frame) : 0.151
Stream size : 190 MiB (89%)
Writing library : XviD 67
Audio
ID : 1
Format : MPEG Audio
Format version : Version 1
Format profile : Layer 3
Codec ID : 55
Codec ID/Hint : MP3
Duration : 24mn 25s
Bit rate mode : Constant
Bit rate : 128 Kbps
Channel(s) : 2 channels
Sampling rate : 48.0 KHz
Compression mode : Lossy
Stream size : 22.4 MiB (10%)
Alignment : Aligned on interleaves
Interleave, duration : 40 ms (1.00 video frame)
Interleave, preload duration : 504 ms

Семпл

Релиз от: HamsterStudio



   Похожие торренты   Торрент   Размер 
В этой теме нет новых непрочитанных сообщений. Сожители / Crashing [01x01-03 из 06] (2016) HDTVRip от HamsterStudio | L2

0 | 0

627.78 МБ

В этой теме нет новых непрочитанных сообщений. Сожители / Crashing [01x01-04 из 06] (2016) HDTVRip от HamsterStudio | L2

0 | 0

824.9 МБ

В этой теме нет новых непрочитанных сообщений. Сожители / Crashing [01x01-05 из 06] (2016) HDTVRip от HamsterStudio | L2

43 | 11

1021.9 МБ

В этой теме нет новых непрочитанных сообщений. Сожители / Crashing [01x01 из 06] (2016) HDTVRip от HamsterStudio | L2

53 | 5

214.03 МБ

В этой теме нет новых непрочитанных сообщений. Сожители / Crashing [01x01-02 из 06] (2016) HDTVRip от HamsterStudio | L2

5 | 0

432.27 МБ

В этой теме нет новых непрочитанных сообщений. Всё кувырком / Crowded [s01] (2016) HDTVRip от HamsterStudio | L2

9 | 13

2.69 ГБ

В этой теме нет новых непрочитанных сообщений. Подчинение / Submission [S01] (2016) HDTVRip от HamsterStudio | L2

73 | 13

1.47 ГБ




Вы не можете начинать темы
Вы не можете отвечать на сообщения
Вы не можете редактировать свои сообщения
Вы не можете удалять свои сообщения
Вы не можете добавлять вложения

Перейти:  
Для Мосгорсуда, Роскомнадзора и рекламодателей: mosgorsud-torrent[собачка]yandex.ru
 Вход
ppkBB3cker v.2 © 2008-2014 @ PPK
[ Time : 0.055s | 16 Queries | GZIP : Off ]

Торрент трекер RUTOR.IN, Не можете зайти на rutor.org? Какой новый адрес рутор? Какое зеркало рутор? Не работает rutor.org и зеркала? Тогда наш торрент специально для вас. Rutor.in неофициальное зеркало rutor. В случае если у Вас заблокирован rutor или вдруг Вы не можете на него зайти, то Вы без труда сможете скачать бесплатно и без рекламы последние новинки кино, игр, сериалов и прочего у нас, на Rutor.in. Не нужно использовать прокси, чтобы зайти на рутор, достаточно воспользоваться нашим ресурсом. Все новые фильмы, игры, сериалы, книги и музыка за 2013 и 2014 годы через торрент бесплатно. Скачивайте фильмы в хорошем качестве, игры для пк, xbox, playstation без регистрации. У нас вы найдете новые Зарубежные сериалы и Русские сериалы 2013, 2014, 2015 годов. Оставайтесь с нами, качайте любимые фильмы, игры, сериалы, книги и музыку.