img image001 image001 image001 image001 image001 image001 image001 image001 image001 image001 image001 image001 image001 image001 image001

Planets Sun Sun Sun
Статистика раздачи
Автор: Nickolas3434 | Размер: 2.33 ГБ | Добавлен: 17 май 2016
Раздают: 49    Качают: 7
Скачать торрент
Скачать торрент
Описание торрента

СообщениеДобавлено: 17 май 2016 


Информация о фильме
Название: Версаль
Оригинальное название: Versailles
Год выпуска: 2015
Жанр: Драма, биография, исторический
Выпущено: Франция, Канада, Capa Drama, Incendo Productions, Zodiak Media Group
Режиссер: Дэниэл Роби, Кристоф Шреве, Жалиль Леспер
В ролях: Джордж Благден, Александр Влахос, Тиг Раньян, Стюарт Боуман, Ивэн Уильямс, Анна Брюстер, Лиззи Броше, Анатоль Таубман, Стив Кьюмин, Элиза Ласовски, Джилли Гилкрист, Джо Шеридан, Амира Казар, Алексис Михалик, Пип Торренс, Питер Хадсон, Джеффри Бейтман, Доминик Блан, Руперт Ванситтарт
О фильме:
Людовик XIV взошел на престол, когда ему было 4 года. Многие годы Францией управлял совет министров, возглавляемый его матерью. Теперь она мертва и у знати с каждым днем все больше власти. Чтобы выжить, Людовику необходимо с чистого листа выстроить новую власть, вдалеке от Парижа. В деревушке под названием...Версаль.

Страна: Франция, Канада
Студия: Capa Drama, Incendo Productions, Zodiak Media Group
Продолжительность: 10 х ~ 00:54:00
Перевод: Профессиональный (многоголосый, закадровый) [Первый канал]
Файл
Формат: MP4
Качество: HDRip | КПК
Видео: MPEG-4 AVC (x264), 640x360, ~500 kbps, 25.000 fps
Аудио: AAC LC, 48.0 KHz, 2 ch, 128 Kbps
Субтитры: Нет
Семпл

Complete name : E:KinoVersal'.AVC.KPK.GFVersal'.S01.2015.AVC.HDRip.KPK.1K.GFVersal'.s01e02.2015.AVC.HDRip.KPK.1K.GF.mp4
Format : MPEG-4
Codec ID : M4V (isom/iso2/avc1)
File size : 244 MiB
Duration : 53mn 51s
Overall bit rate mode : Variable
Overall bit rate : 634 Kbps
Writing application : Lavf53.19.0
Video
ID : 1
Format : AVC
Format/Info : Advanced Video Codec
Format profile : High@L4.1
Format settings, CABAC : Yes
Format settings, ReFrames : 8 frames
Codec ID : avc1
Codec ID/Info : Advanced Video Coding
Duration : 53mn 51s
Bit rate : 500 Kbps
Width : 640 pixels
Height : 360 pixels
Display aspect ratio : 16:9
Frame rate mode : Constant
Frame rate : 25.000 fps
Color space : YUV
Chroma subsampling : 4:2:0
Bit depth : 8 bits
Scan type : Progressive
Bits/(Pixel*Frame) : 0.087
Stream size : 192 MiB (79%)
Writing library : x264 core 130 r2273 b3065e6
Encoding settings : cabac=1 / ref=8 / deblock=1:-2:-2 / analyse=0x3:0x133 / me=umh / subme=10 / psy=1 / psy_rd=1.00:0.00 / mixed_ref=1 / me_range=24 / chroma_me=1 / trellis=2 / 8x8dct=1 / cqm=0 / deadzone=21,11 / fast_pskip=1 / chroma_qp_offset=-2 / threads=12 / lookahead_threads=2 / sliced_threads=0 / nr=0 / decimate=0 / interlaced=0 / bluray_compat=0 / constrained_intra=0 / bframes=8 / b_pyramid=2 / b_adapt=2 / b_bias=0 / direct=3 / weightb=1 / open_gop=0 / weightp=2 / keyint=250 / keyint_min=126 / scenecut=40 / intra_refresh=0 / rc_lookahead=40 / rc=2pass / mbtree=1 / bitrate=500 / ratetol=1.0 / qcomp=0.60 / qpmin=0 / qpmax=69 / qpstep=4 / cplxblur=20.0 / qblur=0.5 / ip_ratio=1.40 / aq=1:1.00
Menus : 3
Audio
ID : 2
Format : AAC
Format/Info : Advanced Audio Codec
Format profile : LC
Codec ID : 40
Duration : 53mn 51s
Bit rate mode : Variable
Bit rate : 128 Kbps
Channel(s) : 2 channels
Channel positions : Front: L R
Sampling rate : 48.0 KHz
Frame rate : 46.875 fps (1024 spf)
Compression mode : Lossy
Stream size : 49.3 MiB (20%)
Default : Yes
Alternate group : 1
Menus : 3

Релиз от:



   Похожие торренты   Торрент   Размер 
В этой теме нет новых непрочитанных сообщений. Версаль / Versailles [01-02 из 10] (2015) HDTVRip от GeneralFilm | Первый Канал

267 | 23

1.48 ГБ

В этой теме нет новых непрочитанных сообщений. Версаль / Versailles [01-08 из 10] (2015) HDRip от qqss44 | Первый канал

83 | 16

5.59 ГБ

В этой теме нет новых непрочитанных сообщений. Версаль / Versailles [01-08 из 10] (2015) BDRip 1080p | Первый канал

22 | 30

31.09 ГБ

В этой теме нет новых непрочитанных сообщений. Версаль [01-02 из 10] (2015) HDTV 1080i от GeneralFilm | Первый Канал

76 | 11

4.98 ГБ

В этой теме нет новых непрочитанных сообщений. Версаль / Versailles [01x01-07 из 10] (2015) HDTVRip | RedDiamond Studio

181 | 342

4.88 ГБ

В этой теме нет новых непрочитанных сообщений. Версаль / Versailles [01x01-05 из 10] (2015) HDTVRip | RedDiamond Studio

189 | 204

3.47 ГБ

В этой теме нет новых непрочитанных сообщений. Версаль / Versailles [01х01 из 10] (2015) HDTVRip 720p | BaibaKo

29 | 1

1.53 ГБ




Вы не можете начинать темы
Вы не можете отвечать на сообщения
Вы не можете редактировать свои сообщения
Вы не можете удалять свои сообщения
Вы не можете добавлять вложения

Перейти:  
Для Мосгорсуда, Роскомнадзора и рекламодателей: mosgorsud-torrent[собачка]yandex.ru
 Вход
ppkBB3cker v.2 © 2008-2014 @ PPK
[ Time : 0.084s | 15 Queries | GZIP : Off ]

Торрент трекер RUTOR.IN, Не можете зайти на rutor.org? Какой новый адрес рутор? Какое зеркало рутор? Не работает rutor.org и зеркала? Тогда наш торрент специально для вас. Rutor.in неофициальное зеркало rutor. В случае если у Вас заблокирован rutor или вдруг Вы не можете на него зайти, то Вы без труда сможете скачать бесплатно и без рекламы последние новинки кино, игр, сериалов и прочего у нас, на Rutor.in. Не нужно использовать прокси, чтобы зайти на рутор, достаточно воспользоваться нашим ресурсом. Все новые фильмы, игры, сериалы, книги и музыка за 2013 и 2014 годы через торрент бесплатно. Скачивайте фильмы в хорошем качестве, игры для пк, xbox, playstation без регистрации. У нас вы найдете новые Зарубежные сериалы и Русские сериалы 2013, 2014, 2015 годов. Оставайтесь с нами, качайте любимые фильмы, игры, сериалы, книги и музыку.
cron