img image001 image001 image001 image001 image001 image001 image001 image001 image001 image001 image001 image001 image001 image001 image001

Planets Sun Sun Sun
Статистика раздачи
Автор: Nickolas3434 | Размер: 3.16 ГБ | Добавлен: 18 май 2016
Раздают: 94    Качают: 156
Скачать торрент
Скачать торрент
Описание торрента

СообщениеДобавлено: 18 май 2016 


Информация о фильме
Название: Бульварные ужасы
Оригинальное название: Penny Dreadful
Год выхода: 2016
Жанр: ужасы, триллер, драма
Режиссер: Хуан Антонио Байона, Дирбла Уолш, Коки Гидройч, Джеймс Хоуз
В ролях: Тимоти Далтон, Ева Грин, Джош Хартнетт, Рори Киннер, Хелен МакКрори, Билли Пайпер, Гарри Тредэвэй, Рив Карни, Алан Армстронг и др.
О фильме:
Лондон, сентябрь 1891 года. Закат эпохи викторианской Англии. Разгул преступности и разврата, случившийся ввиду паршивой политики правительства, достиг апогея. Люди боятся выходить на улицы. И совсем невовремя для полиции маньяк растерзал в клочья женщину с ребёнком, из-за чего начали курсировать слухи о возвращении Джека-Потрошителя.
В этот же самый момент в городе находился заезжий цирк-шапито, где звездой был стрелок-американец Итан Чандлер. Грани таланта Итана сверкнули так ярко, что Итан получил предложение ночного задания от таинственной Ванессы Айвз. Но он и представить не мог, что в ходе задания выяснит, что ад был вовсе не под землёй, а в самом сердце Лондона. К делу подключается юный анатом Виктор Франкенштейн, после чего события принимают совершенно неожиданный оборот...


Страна: США
Продолжительность: ~ 60 мин. серия
Перевод: Любительский (многоголосый закадровый) | OMSKBIRD
Файл
Кодек: MPEG-4 AVC
Качество: HDTV 720p
Видео: AVC, 1280x720 (16:9), 23.976 fps, ~ 1500 kbps
Звук: Аудио rus: AC-3, 48 KHz, 6 ch, 384 kbps | OMSKBIRD records
Аудио eng: AC-3, 48 KHz, 6 ch, 384 kbps
Семпл


General
Unique ID : 223761310339503189375569579082577657716 (0xA856DC5D3EEA5F868DA63A4A0724BF74)
Complete name : F:Мои ДокументыВидеоРАЗДАЧИПенни ДредфулPenny Dreadful S03 HDTV 720p (OMSKBIRD)Penny Dreadful S03E02 HDTV 720p (OMSKBIRD).mkv
Format : Matroska
Format version : Version 2
File size : 999 MiB
Duration : 53mn 58s
Overall bit rate : 2 588 Kbps
Encoded date : UTC 2016-05-09 19:32:38
Writing application : mkvmerge v4.0.0 ('The Stars were mine') сборка от Jun 6 2010 16:18:42
Writing library : libebml v1.0.0 + libmatroska v1.0.0
Video
ID : 1
Format : AVC
Format/Info : Advanced Video Codec
Format profile : High@L4.1
Format settings, CABAC : Yes
Format settings, ReFrames : 5 frames
Codec ID : V_MPEG4/ISO/AVC
Duration : 53mn 58s
Bit rate : 1 769 Kbps
Width : 1 280 pixels
Height : 720 pixels
Display aspect ratio : 16:9
Frame rate : 23.976 fps
Color space : YUV
Chroma subsampling : 4:2:0
Bit depth : 8 bits
Scan type : Progressive
Bits/(Pixel*Frame) : 0.080
Stream size : 683 MiB (68%)
Writing library : x264 core 148 r2665 a01e339
Encoding settings : cabac=1 / ref=5 / deblock=1:-3:-3 / analyse=0x3:0x113 / me=umh / subme=8 / psy=1 / psy_rd=1.05:0.00 / mixed_ref=1 / me_range=16 / chroma_me=1 / trellis=1 / 8x8dct=1 / cqm=0 / deadzone=21,11 / fast_pskip=1 / chroma_qp_offset=-2 / threads=18 / lookahead_threads=3 / sliced_threads=0 / nr=0 / decimate=1 / interlaced=0 / bluray_compat=0 / constrained_intra=0 / bframes=3 / b_pyramid=2 / b_adapt=2 / b_bias=0 / direct=3 / weightb=1 / open_gop=0 / weightp=2 / keyint=250 / keyint_min=23 / scenecut=40 / intra_refresh=0 / rc_lookahead=50 / rc=crf / mbtree=1 / crf=18.0 / qcomp=0.60 / qpmin=0 / qpmax=69 / qpstep=4 / ip_ratio=1.40 / aq=3:0.80
Language : English
Default : No
Forced : No
Audio #1
ID : 2
Format : AC-3
Format/Info : Audio Coding 3
Mode extension : CM (complete main)
Format settings, Endianness : Big
Codec ID : A_AC3
Duration : 53mn 58s
Bit rate mode : Constant
Bit rate : 384 Kbps
Channel(s) : 6 channels
Channel positions : Front: L C R, Side: L R, LFE
Sampling rate : 48.0 KHz
Bit depth : 16 bits
Compression mode : Lossy
Stream size : 148 MiB (15%)
Language : Russian
Default : Yes
Forced : No
Audio #2
ID : 3
Format : AC-3
Format/Info : Audio Coding 3
Mode extension : CM (complete main)
Format settings, Endianness : Big
Codec ID : A_AC3
Duration : 53mn 58s
Bit rate mode : Constant
Bit rate : 384 Kbps
Channel(s) : 6 channels
Channel positions : Front: L C R, Side: L R, LFE
Sampling rate : 48.0 KHz
Bit depth : 16 bits
Compression mode : Lossy
Stream size : 148 MiB (15%)
Language : English
Default : No
Forced : No
Перевод • Ольга Калугина
Роли озвучивали • Павел Ярощик, Влад Данилов, Денис Строев, Полина Касаткина
Звукорежиссер • Павел Квентов
Постер • Ксения Просветова
Релиз подготовил • Gater
Внимание! Раздача ведётся путём добавления новых серий; при каждом добавлении создаётся новый торрент. Чтобы начать докачку новой серии, пользователям необходимо сделать следующее:
Остановить скачивание.
Удалить старый торрент у себя из клиента (старые серии удалять не надо).
Скачать новый торрент и запустить его у себя в клиенте вместо старого, при этом указать клиенту путь в старую папку куда и должно происходить скачивание новых серий.
Ваш клиент при этом должен произвести хеширование (проверку) старой папки (если не производит сам - помогите ему сделать это), и будет докачивать только те серии которых у вас ещё нет. Старые серии при этом не удаляются, а продолжают раздаваться!
Eсли вы уже удалили старые серии, то предотвратить повторную закачку старых серий можно, отжав галочку в соответсвующих местах при запуске нового торрента. По возможности, желательно не удалять старые серии как можно дольше чтобы релизёр не столько продолжал раздавать старые серии, а смог сконцентрироваться на новых.



   Похожие торренты   Торрент   Размер 
В этой теме нет новых непрочитанных сообщений. Бульварные ужасы / Penny Dreadful [03x01 из 10] (2016) WEBRip 720p | OMSKBIRD

60 | 2

770.46 МБ

В этой теме нет новых непрочитанных сообщений. Страшные сказки / Бульварные ужасы / Ужасы по дешевке / Penny Dreadful [01x01 из 08] (2014) HDTVRip 720p | Lostfilm

20 | 2

1.78 ГБ

В этой теме нет новых непрочитанных сообщений. Страшные сказки / Бульварные ужасы / Ужасы по дешевке / Penny Dreadful [S01] (2014) HDTVRip | LostFilm

378 | 175

3.47 ГБ

В этой теме нет новых непрочитанных сообщений. Страшные сказки / Бульварные ужасы / Ужасы по дешевке / Penny Dreadful [01x01-05 из 08] (2014) HDTVRip | Lostfilm

142 | 127

2.09 ГБ

В этой теме нет новых непрочитанных сообщений. Страшные сказки / Бульварные ужасы / Ужасы по дешевке / Penny Dreadful [01x01-03 из 08] (2014) HDTVRip | Lostfilm

295 | 154

1.23 ГБ

В этой теме нет новых непрочитанных сообщений. Страшные сказки / Бульварные ужасы / Ужасы по дешевке / Penny Dreadful [01x01-06 из 08] (2014) HDTVRip | Lostfilm

181 | 151

2.4 ГБ

В этой теме нет новых непрочитанных сообщений. Страшные сказки / Бульварные ужасы / Ужасы по дешевке / Penny Dreadful [01x01-07 из 08] (2014) HDTVRip | LostFilm

72 | 93

3.09 ГБ




Вы не можете начинать темы
Вы не можете отвечать на сообщения
Вы не можете редактировать свои сообщения
Вы не можете удалять свои сообщения
Вы не можете добавлять вложения

Перейти:  
Для Мосгорсуда, Роскомнадзора и рекламодателей: mosgorsud-torrent[собачка]yandex.ru
 Вход
ppkBB3cker v.2 © 2008-2014 @ PPK
[ Time : 0.049s | 14 Queries | GZIP : Off ]

Торрент трекер RUTOR.IN, Не можете зайти на rutor.org? Какой новый адрес рутор? Какое зеркало рутор? Не работает rutor.org и зеркала? Тогда наш торрент специально для вас. Rutor.in неофициальное зеркало rutor. В случае если у Вас заблокирован rutor или вдруг Вы не можете на него зайти, то Вы без труда сможете скачать бесплатно и без рекламы последние новинки кино, игр, сериалов и прочего у нас, на Rutor.in. Не нужно использовать прокси, чтобы зайти на рутор, достаточно воспользоваться нашим ресурсом. Все новые фильмы, игры, сериалы, книги и музыка за 2013 и 2014 годы через торрент бесплатно. Скачивайте фильмы в хорошем качестве, игры для пк, xbox, playstation без регистрации. У нас вы найдете новые Зарубежные сериалы и Русские сериалы 2013, 2014, 2015 годов. Оставайтесь с нами, качайте любимые фильмы, игры, сериалы, книги и музыку.