img image001 image001 image001 image001 image001 image001 image001 image001 image001 image001 image001 image001 image001 image001 image001

Planets Sun Sun Sun
Статистика раздачи
Автор: Nickolas3434 | Размер: 12.82 ГБ | Добавлен: 18 май 2016
Раздают: 16    Качают: 5
Скачать торрент
Скачать торрент
Описание торрента

СообщениеДобавлено: 18 май 2016 

Гримм | Grimm
Дополнительные материалы
к 1-му сезону

«Не ваши обычные подозреваемые»

Информация о фильме:
Название: Гримм
Оригинальное название: Grimm
Год выпуска: 2011-2012
Жанр: ужасы, фэнтези, триллер, драма, детектив, бонусы
Режиссёр: Норберто Барба, Терренс О’Хара, Эрик Ланёвилль и др.
В ролях: Дэвид Джинтоли, Битси Таллок, Сайлас Уэйр Митчелл, Расселл Хорнсби, Саша Ройз, Регги Ли, Клэр Коффи, Бри Тёрнер, Роберт Бланш, Дэнни Бруно и др.
Описание: Здесь представлены эксклюзивные материалы с оригинальных Blu-Ray дисков, куда входят 13 вырезанных сцен, видео с проб Дэвида Джинтоли, Битси Таллок, Сайласа Уэйр Митчелла и Регги Ли, смешные моменты и многое, многое другое...
Grimm Guide: An interactive guide to Grimm's monsters and creatures. However, "interactive" should be taken as loosely as possible, as it amounts to clicking through a text-heavy book and playing video clips sans audio and any meaningful insight.
Deleted and Extended Scenes: A number of deleted scenes are sprinkled across the 5-disc set, most either trivial or inconsequential. Fans may be entranced but most everyone else will continue to shrug their shoulders.
The World of Grimm: An entry-level overview of the series' characters and mythos.
Audition Tapes: David Giuntoli, Silas Weir Mitchell, Russell Hornsby, Bitsie Tulloch and Reggie Lee win over the Grimm showrunners.
Making Monsters: An FX featurette centered around Grimm's beasties.
VFX Progressions: Brief FX breakdowns.
Highlight Reels: Three rapidfire montages: "Scares", "Morphs" and "The Language of Grimm."
Gag Reel: Nothing special. Nothing even memorable.


Страна: США, GK Productions, Hazy Mills Productions, Universal TV
Продолжительность:
13x ~00:03:00 - Deleted Scenes
27x ~00:00:35 - Grimm Guide Creatures
5x ~00:03:00 - Audition Tapes
00:02:27 - Highlight Reels Morphs
00:01:32 - Highlight Reels Scares
00:01:32 - Highlight Reels The Language of Grimm
00:06:43 - Making Monsters
00:03:12 - Gag Reel
00:10:50 - The World of Grimm
00:02:08 - VFX Progressions

Перевод: Английский
Субтитры: Английские: вшитые, отключаемые
Файл:
Формат: MKV
Видео кодек: MPEG-4 AVC
Аудио кодек: AC3
Свойства видео: 1920x1080 (16:9), 23.976 fps, ~27000 kbps, 0.56 bits/pixel
Аудио : 48 kHz, AC3, 2 (L,R) ch, ~192.00 kbps avg
General
Unique ID : 239767032128595166404233504501885472505 (0xB46173601D28D1159211FFDD30E68EF9)
Complete name : G:GrimmGrimm S01 Extras BDRemux 1080p Rus Eng Subs by Stiles RG SerialSGrimm S01 Gag Reel BDRemux 1080p Eng Subs by Stiles RG SerialS.mkv
Format : Matroska
Format version : Version 4 / Version 2
File size : 620 MiB
Duration : 3mn 12s
Overall bit rate mode : Variable
Overall bit rate : 27.1 Mbps
Movie name : Grimm S01 Gag Reel BDRemux 1080p Eng Subs by Stiles RG SerialS
Encoded date : UTC 2016-05-17 09:56:23
Writing application : mkvmerge v7.9.0 ('Birds') 64bit
Writing library : libebml v1.3.1 + libmatroska v1.4.2
DURATION : 00:03:02.891000000
NUMBER_OF_FRAMES : 114
NUMBER_OF_BYTES : 341211
_STATISTICS_WRITING_APP : mkvmerge v7.9.0 ('Birds') 64bit
_STATISTICS_WRITING_DATE_UT : 2016-05-17 09:56:23
_STATISTICS_TAGS : BPS DURATION NUMBER_OF_FRAMES NUMBER_OF_BYTES
Video
ID : 1
Format : AVC
Format/Info : Advanced Video Codec
Format profile : High@L4.1
Format settings, CABAC : Yes
Format settings, ReFrames : 4 frames
Codec ID : V_MPEG4/ISO/AVC
Duration : 3mn 12s
Bit rate mode : Variable
Bit rate : 26.3 Mbps
Maximum bit rate : 35.0 Mbps
Width : 1 920 pixels
Height : 1 080 pixels
Display aspect ratio : 16:9
Frame rate mode : Constant
Frame rate : 23.976 fps
Color space : YUV
Chroma subsampling : 4:2:0
Bit depth : 8 bits
Scan type : Progressive
Bits/(Pixel*Frame) : 0.530
Stream size : 604 MiB (97%)
Default : Yes
Forced : No
Audio
ID : 2
Format : AC-3
Format/Info : Audio Coding 3
Mode extension : CM (complete main)
Format settings, Endianness : Big
Codec ID : A_AC3
Duration : 3mn 12s
Bit rate mode : Constant
Bit rate : 192 Kbps
Channel(s) : 2 channels
Channel positions : Front: L R
Sampling rate : 48.0 KHz
Compression mode : Lossy
Stream size : 4.40 MiB (1%)
Language : English
Default : Yes
Forced : No
Text
ID : 3
Format : PGS
Muxing mode : zlib
Codec ID : S_HDMV/PGS
Codec ID/Info : Picture based subtitle format used on BDs/HD-DVDs
Language : English
Default : Yes
Forced : No




Релиз от: Stiles



   Похожие торренты   Торрент   Размер 
В этой теме нет новых непрочитанных сообщений. Гримм / Grimm [S02] (2012-2013) BDRemux 1080р | Дополнительные материалы

12 | 4

12.26 ГБ

В этой теме нет новых непрочитанных сообщений. Гримм / Grimm [S01] (2011-2012) BDRemux 1080р | LostFilm

14 | 10

195.26 ГБ

В этой теме нет новых непрочитанных сообщений. Гримм / Grimm [S02] (2012-2013) BDRemux 1080р | LostFilm

3 | 23

194.73 ГБ

В этой теме нет новых непрочитанных сообщений. Древние / The Originals [S01] (2013-2014) BDRemux 1080р | Дополнительные материалы

9 | 2

9.26 ГБ

В этой теме нет новых непрочитанных сообщений. Древние / The Originals [S02] (2014-2015) BDRemux 1080р | Дополнительные материалы

11 | 4

5.44 ГБ

В этой теме нет новых непрочитанных сообщений. Гримм / Grimm [S01] (2011-2012) BDRip

30 | 28

18.79 ГБ

В этой теме нет новых непрочитанных сообщений. Гримм / Grimm [S02] (2011-2012) WEBDLRip

5 | 10

17.49 ГБ




Вы не можете начинать темы
Вы не можете отвечать на сообщения
Вы не можете редактировать свои сообщения
Вы не можете удалять свои сообщения
Вы не можете добавлять вложения

Перейти:  
Для Мосгорсуда, Роскомнадзора и рекламодателей: mosgorsud-torrent[собачка]yandex.ru
 Вход
ppkBB3cker v.2 © 2008-2014 @ PPK
[ Time : 1.431s | 15 Queries | GZIP : On ]

Торрент трекер RUTOR.IN, Не можете зайти на rutor.org? Какой новый адрес рутор? Какое зеркало рутор? Не работает rutor.org и зеркала? Тогда наш торрент специально для вас. Rutor.in неофициальное зеркало rutor. В случае если у Вас заблокирован rutor или вдруг Вы не можете на него зайти, то Вы без труда сможете скачать бесплатно и без рекламы последние новинки кино, игр, сериалов и прочего у нас, на Rutor.in. Не нужно использовать прокси, чтобы зайти на рутор, достаточно воспользоваться нашим ресурсом. Все новые фильмы, игры, сериалы, книги и музыка за 2013 и 2014 годы через торрент бесплатно. Скачивайте фильмы в хорошем качестве, игры для пк, xbox, playstation без регистрации. У нас вы найдете новые Зарубежные сериалы и Русские сериалы 2013, 2014, 2015 годов. Оставайтесь с нами, качайте любимые фильмы, игры, сериалы, книги и музыку.