img image001 image001 image001 image001 image001 image001 image001 image001 image001 image001 image001 image001 image001 image001 image001

Planets Sun Sun Sun
Статистика раздачи
Автор: Nickolas3434 | Размер: 2.21 ГБ | Добавлен: 18 май 2016
Раздают: 5    Качают: 0
Скачать торрент
Скачать торрент
Описание торрента

СообщениеДобавлено: 18 май 2016 


Информация о фильме
Название: Волшебная шкатулка / Шкатулка наслаждений
Оригинальное название: The Box of Delights
Год выхода: 1984
Жанр: фэнтези, семейный
Режиссер: Ренни Рай
В ролях: Девин Стэнфилд, Роберт Стивенс, Джонатан Стефенс, Джоэнна Дьюкс, Хайди Бертон, Флора Пейдж, Кэрол Фрейзер, Криспин Мэир, Глин Бейкер
О фильме:
Странные вещи начинают происходить с юным Кеем Хакером в ту минуту, когда он садится в поезд, отправляясь домой на Рождество. Прибыв к месту назначения, мальчик сталкивается со стариком, который сообщает ему нечто таинственное: "Волки бегут". Приключения начинаются, и вот уже опасности подстерегают Кея на каждом шагу. Он сталкивается с бандой преступников, возглавляемых известным волшебником Абнером Брауном и его женой ведьмой Сильвией. Чего же они хотят? Угрожают отменить Рождество! Но с помощью своих союзников, включая бесстрашную мышь, эскадрон римских солдат, легендарного охотника и изобретателя "Шкатулки наслаждений", Кей помешает заговору Абнера Брауна и спасёт Рождество.
По одноимённой книге Джона Мейсфилда.

Производство: Великобритания / British Broadcasting Corporation (BBC), Lella Productions
Продолжительность: 6 x ~00:30:00
Перевод: любительский (одноголосый закадровый) [Старый Бильбо]
Файл
Качество: DVDRip
Формат: AVI
Видео: XviD, 640x480 (4:3), 25.000 fps, ~1500 kbps
Аудио #1: русский, MP3 2.0, 48 kHz, 128 kbps
Аудио #2: английский, MP3 2.0, 48 kHz, 128 kbps
Субтитры: русские [Deech1234, Юлия2705 (madelaine), lusinoid, Katrin_Garwin] внешние, SRT
1. When the Wolves were running - Бегущие волки
2. Where shall the Knighted Showman go - Куда отправился Рыцарь снега
3. In Darkest Cellars Underneath - В темнее-тёмной темнице
4. The Spider in the Web - Паук в паутине
5. Beware of Yesterday - Опасайся прошлого
6. Leave us not Little, nor yet Dark - Не оставаясь малышами
Общее
Полное имя : s01e01 - When the Wolves were running.avi
Формат : AVI
Формат/Информация : Audio Video Interleave
Размер файла : 379 Мбайт
Продолжительность : 29 м.
Общий поток : 1770 Кбит/сек
Программа кодирования : VirtualDubModRus 1.5.10.2 (build 2542/release)
Библиотека кодирования : VirtualDubMod build 2542/release
Видео
Идентификатор : 0
Формат : MPEG-4 Visual
Профиль формата : Advanced Simple@L5
Параметр BVOP формата : 1
Параметр QPel формата : Нет
Параметр GMC формата : Без точки перехода
Параметр матрицы формата : Выборочная
Идентификатор кодека : XVID
Идентификатор кодека/Подсказка : XviD
Продолжительность : 29 м.
Битрейт : 1499 Кбит/сек
Ширина : 640 пикселей
Высота : 480 пикселей
Соотношение сторон : 4:3
Частота кадров : 25,000 кадров/сек
Цветовое пространство : YUV
Субдискретизация насыщенности : 4:2:0
Битовая глубина : 8 бит
Тип развёртки : Прогрессивная
Метод сжатия : С потерями
Бит/(Пиксели*Кадры) : 0.195
Размер потока : 321 Мбайт (85%)
Библиотека кодирования : XviD 1.1.2 (UTC 2006-11-01)
Аудио #1
Идентификатор : 1
Формат : MPEG Audio
Версия формата : Version 1
Профиль формата : Layer 3
Режим : Joint stereo
Расширение режима : MS Stereo
Идентификатор кодека : 55
Идентификатор кодека/Подсказка : MP3
Продолжительность : 29 м.
Вид битрейта : Постоянный
Битрейт : 128 Кбит/сек
Каналы : 2 канала
Частота : 48,0 КГц
Метод сжатия : С потерями
Размер потока : 27,4 Мбайт (7%)
Выравнивание : Соединение по промежуткам
Продолжительность промежутка : 40 мс. (1,00 видеокадр)
Время предзагрузки промежутка : 504 мс.
Библиотека кодирования : LAME3.98
Настройки программы : -m j -V 4 -q 5 -lowpass 17 -b 128
Аудио #2
Идентификатор : 2
Формат : MPEG Audio
Версия формата : Version 1
Профиль формата : Layer 3
Режим : Joint stereo
Расширение режима : MS Stereo
Идентификатор кодека : 55
Идентификатор кодека/Подсказка : MP3
Продолжительность : 29 м.
Вид битрейта : Постоянный
Битрейт : 128 Кбит/сек
Каналы : 2 канала
Частота : 48,0 КГц
Метод сжатия : С потерями
Размер потока : 27,4 Мбайт (7%)
Выравнивание : Соединение по промежуткам
Продолжительность промежутка : 40 мс. (1,00 видеокадр)
Время предзагрузки промежутка : 504 мс.
Библиотека кодирования : LAME3.97
Настройки программы : -m j -V 4 -q 2 -lowpass 17 -b 128



   Похожие торренты   Торрент   Размер 
В этой теме нет новых непрочитанных сообщений. Сад земных наслаждений / The Garden of Earthly Delights (2004) DVDRip | Sub

85 | 8

715.48 МБ

В этой теме нет новых непрочитанных сообщений. Сад земных наслаждений / The Garden of Earthly Delights (2004) DVD-9 | L2

20 | 6

6.08 ГБ

В этой теме нет новых непрочитанных сообщений. Шкатулка с секретом (1976) DVDRip

26 | 4

129.49 МБ

В этой теме нет новых непрочитанных сообщений. Сад земных наслаждений / The Garden of Earthly Delights (2004) HDTVRip 720р | L2

231 | 38

2.07 ГБ

В этой теме нет новых непрочитанных сообщений. Шкатулка с секретом (1976) DVDRip-AVC от New-Team

93 | 11

145.73 МБ

В этой теме нет новых непрочитанных сообщений. Шкатулка с секретом (1976) DVDRip от New-Team

26 | 4

143.99 МБ

В этой теме нет новых непрочитанных сообщений. Китайская шкатулка / Chinese box (1997) DVDRip-AVC от Temperest

5 | 3

1.91 ГБ




Вы не можете начинать темы
Вы не можете отвечать на сообщения
Вы не можете редактировать свои сообщения
Вы не можете удалять свои сообщения
Вы не можете добавлять вложения

Перейти:  
Для Мосгорсуда, Роскомнадзора и рекламодателей: mosgorsud-torrent[собачка]yandex.ru
 Вход
ppkBB3cker v.2 © 2008-2014 @ PPK
[ Time : 0.608s | 14 Queries | GZIP : Off ]

Торрент трекер RUTOR.IN, Не можете зайти на rutor.org? Какой новый адрес рутор? Какое зеркало рутор? Не работает rutor.org и зеркала? Тогда наш торрент специально для вас. Rutor.in неофициальное зеркало rutor. В случае если у Вас заблокирован rutor или вдруг Вы не можете на него зайти, то Вы без труда сможете скачать бесплатно и без рекламы последние новинки кино, игр, сериалов и прочего у нас, на Rutor.in. Не нужно использовать прокси, чтобы зайти на рутор, достаточно воспользоваться нашим ресурсом. Все новые фильмы, игры, сериалы, книги и музыка за 2013 и 2014 годы через торрент бесплатно. Скачивайте фильмы в хорошем качестве, игры для пк, xbox, playstation без регистрации. У нас вы найдете новые Зарубежные сериалы и Русские сериалы 2013, 2014, 2015 годов. Оставайтесь с нами, качайте любимые фильмы, игры, сериалы, книги и музыку.