img image001 image001 image001 image001 image001 image001 image001 image001 image001 image001 image001 image001 image001 image001 image001

Planets Sun Sun Sun
Статистика раздачи
Автор: Nickolas3434 | Размер: 47.82 ГБ | Добавлен: 20 май 2016
Раздают: 151    Качают: 126
Скачать торрент
Скачать торрент
Описание торрента

СообщениеДобавлено: 20 май 2016 


Кровь и песок / Blood and Sand Боги арены / Gods of the Arena
Месть / Vengeance Война проклятых / War of the Damned

Страна: США
Производство: Starz Media, Starz Productions
Год выпуска: 2010–2013
Жанр: боевик, драма, приключения, биография, история
Сезоны: 1-4
Серии: 1-39 (из 39)
Продолжительность: 39х ~00:55:00
Режиссеры: Джесси Уарн, Майкл Херст, Рик Джейкобсон
Авторы сценария: Стивен С. ДеНайт, Брент Флетчер, Аарон Хелбинг
В ролях: Энди Уитфилд, Лиам МакИнтайр, Ману Беннетт, Дастин Клер, Дэниел Фьюрригал, Ник Е. Тарабэй, Джон Ханна, Люси Лоулесс, Вива Бьянка, Питер Менса
Описание: «Спартак» — это жесткий и выразительный рассказ о самом знаменитом из римских гладиаторов. Спартака разлучили с любовью всей его жизни и заставили выходить на арену, где смерть — лучшее развлечение для толпы. Спартак должен бороться за выживание, подружиться с врагами, и усвоить политику нового мира жестокости, секса и славы. Его будут соблазнять властью и изводить местью. Но его страсть даст ему силы преодолеть все испытания в этой истории о смерти, чести и стойкости...

Субтитры: нет
Перевод: Профессиональный (многоголосый, закадровый) | LostFilm

Качество: BDRip HEVC 1080p
Формат: МР4
Видео кодек: HEVC
Аудио кодек: ААС
Видео: 1920x1080 (16:9), 23.976 fps,MPEG-4 HEVC ~3000 kbps
Аудио: 48.0 kHz, Advanced Audio Codec LC, 2/0 (L,R) ch, ~192 kbps avg
Дата премьеры (мир): 22 января 2010
Релиз от: Medivh (gmnet)
*H.265/HEVC (High Efficiency Video Coding) - это новый стандарт кодирования видео.
*Рипы в фомате HEVC, в настоящее время не поддерживается большинством аппаратных проигрывателей.
*Для корректного воспроизведения может потребоваться обновление ПО.
*Стандарт H.265/HEVC является логическим продолжением стандарта H.264/AVC (Advanced Video Coding), и характеризуется более эффективными алгоритмами сжатия, а также поддержкой высокого разрешения вплоть до 8K UHD (8192x4320). Первая версия стандарта H.265 была опубликована в начале 2013 года.

Формат : MPEG-4
Профиль формата : Base Media
Идентификатор кодека : isom
Размер файла : 1,21 Гбайт
Продолжительность : 54 м.
Режим общего битрейта : Переменный
Общий поток : 3158 Кбит/сек
Программа кодирования : Lavf55.37.101
Видео
Идентификатор : 1
Формат : HEVC
Формат/Информация : High Efficiency Video Coding
Профиль формата : Main@L4@Main
Идентификатор кодека : hev1
Идентификатор кодека/Информация : High Efficiency Video Coding
Продолжительность : 54 м.
Битрейт : 2987 Кбит/сек
Ширина : 1920 пикселей
Высота : 1080 пикселей
Соотношение сторон : 16:9
Режим частоты кадров : Постоянный
Частота кадров : 23,976 кадра/сек
Цветовое пространство : YUV
Субдискретизация насыщенности : 4:2:0
Битовая глубина : 8 бит
Тип развёртки : Прогрессивная
Бит/(Пиксели*Кадры) : 0.060
Размер потока : 1,15 Гбайт (95%)
Аудио
Идентификатор : 2
Формат : AAC
Формат/Информация : Advanced Audio Codec
Профиль формата : LC
Идентификатор кодека : 40
Продолжительность : 54 м.
Вид битрейта : Переменный
Битрейт : 165 Кбит/сек
Максимальный битрейт : 192 Кбит/сек
Каналы : 2 канала
Расположение каналов : Front: L R
Частота : 48,0 КГц
Метод сжатия : С потерями
Размер потока : 65,0 Мбайт (5%)
Язык : Russian




   Похожие торренты   Торрент   Размер 
В этой теме нет новых непрочитанных сообщений. Спартак / Spartacus [s01-04] (2010-2013) BDRip (720p) | LostFilm

386 | 90

42.86 ГБ

В этой теме нет новых непрочитанных сообщений. Спартак: Антология / Spartacus: Anthology (2010-2013) HDTVRip | LostFilm

53 | 30

21.5 ГБ

В этой теме нет новых непрочитанных сообщений. Спартак: кровь и песок / Spartacus: Blood and Sand + Спартак: Боги Арены / Spartacus: Gods of the Arena [s01] (2010-2011) HDTVRip-AVC

82 | 36

17.03 ГБ

В этой теме нет новых непрочитанных сообщений. Спартак: кровь и песок / Spartacus: Blood and Sand [S01] (2010) HDTVRip от LostFilm

667 | 95

5.33 ГБ

В этой теме нет новых непрочитанных сообщений. Спартак: кровь и песок / Spartacus: Blood and Sand (2010) BDRip 1080p

32 | 61

69.76 ГБ

В этой теме нет новых непрочитанных сообщений. Спартак / Spartacus [S01-04] (2010-2013) BDRip 720p | Рен ТВ

193 | 394

98.69 ГБ

В этой теме нет новых непрочитанных сообщений. Спартак: Кровь и Песок / Spartacus: Blood and Sand [S01] (2010) HDRip от Scarabey | LostFilm

265 | 65

10.76 ГБ




Вы не можете начинать темы
Вы не можете отвечать на сообщения
Вы не можете редактировать свои сообщения
Вы не можете удалять свои сообщения
Вы не можете добавлять вложения

Перейти:  
Для Мосгорсуда, Роскомнадзора и рекламодателей: mosgorsud-torrent[собачка]yandex.ru
 Вход
ppkBB3cker v.2 © 2008-2014 @ PPK
[ Time : 0.047s | 14 Queries | GZIP : On ]

Торрент трекер RUTOR.IN, Не можете зайти на rutor.org? Какой новый адрес рутор? Какое зеркало рутор? Не работает rutor.org и зеркала? Тогда наш торрент специально для вас. Rutor.in неофициальное зеркало rutor. В случае если у Вас заблокирован rutor или вдруг Вы не можете на него зайти, то Вы без труда сможете скачать бесплатно и без рекламы последние новинки кино, игр, сериалов и прочего у нас, на Rutor.in. Не нужно использовать прокси, чтобы зайти на рутор, достаточно воспользоваться нашим ресурсом. Все новые фильмы, игры, сериалы, книги и музыка за 2013 и 2014 годы через торрент бесплатно. Скачивайте фильмы в хорошем качестве, игры для пк, xbox, playstation без регистрации. У нас вы найдете новые Зарубежные сериалы и Русские сериалы 2013, 2014, 2015 годов. Оставайтесь с нами, качайте любимые фильмы, игры, сериалы, книги и музыку.