img image001 image001 image001 image001 image001 image001 image001 image001 image001 image001 image001 image001 image001 image001 image001

Planets Sun Sun Sun
Статистика раздачи
Автор: Nickolas3434 | Размер: 1002.05 МБ | Добавлен: 24 май 2016, 01:11
Раздают: 4    Качают: 2
Скачать торрент
Скачать торрент
Описание торрента

СообщениеДобавлено: 24 май 2016, 01:11 


Информация о фильме
Название: Внутри Эми Шумер
Оригинальное название: Inside Amy Schumer
Год выхода: 2013
Жанр: комедия
Режиссер: Райан МакФол, Нил Бреннан, Стивен К. Цутида
В ролях: Эми Шумер, Кевин Кэйн, Майк Хьюстон, Меган Вульф, Маргарет Роуз Шампейн, Ким Карамел, Нина Метха
О фильме:
Эми Бет Шумер — известная американская стэнд-ап комедиантка, актриса, писательница. «Внутри Эми Шумер» новое скетч-шоу, в котором Эми является сценаристом, исполнительным продюсером и актрисой, исполняющей главную роль.

Страна: США
Продолжительность: ~00:20:00 серия
Перевод: Любительский двухголосый [HamsterStudio]
Файл
Кодек: XviD
Качество: HDTVRip
Видео: 720x400, 1209 Kbps, 23.976 fps
Звук: MP3, 128 кб/с (2 ch)
Семпл

General
Complete name : /home/roma/Відео/Внутри Эми Шумер (Inside Amy Schumer)/Inside.Amy.Schumer.s01e01.avi
Format : AVI
Format/Info : Audio Video Interleave
File size : 201 MiB
Duration : 20mn 50s
Overall bit rate : 1 346 Kbps
Writing application : VirtualDubModRus 1.5.10.2 (build 2540/release)
Writing library : VirtualDubMod build 2540/release
Video
ID : 0
Format : MPEG-4 Visual
Format profile : Advanced Simple@L5
Format settings, BVOP : 1
Format settings, QPel : No
Format settings, GMC : No warppoints
Format settings, Matrix : Default (H.263)
Codec ID : XVID
Codec ID/Hint : XviD
Duration : 20mn 50s
Bit rate : 1 209 Kbps
Width : 720 pixels
Height : 400 pixels
Display aspect ratio : 16:9
Frame rate : 23.976 (23976/1000) fps
Color space : YUV
Chroma subsampling : 4:2:0
Bit depth : 8 bits
Scan type : Progressive
Compression mode : Lossy
Bits/(Pixel*Frame) : 0.175
Stream size : 180 MiB (90%)
Writing library : XviD 1.2.1 (UTC 2008-12-04)
Audio
ID : 1
Format : MPEG Audio
Format version : Version 1
Format profile : Layer 3
Mode : Joint stereo
Mode extension : MS Stereo
Codec ID : 55
Codec ID/Hint : MP3
Duration : 20mn 50s
Bit rate mode : Constant
Bit rate : 128 Kbps
Channel(s) : 2 channels
Sampling rate : 48.0 KHz
Compression mode : Lossy
Stream size : 19.1 MiB (10%)
Alignment : Aligned on interleaves
Interleave, duration : 42 ms (1.00 video frame)
Interleave, preload duration : 504 ms
Когда раздача ведётся путём добавления новых серий, при каждом добавлении создётся новый торрент. Чтобы начать докачку новой серии, пользователям необходимо сделать следующее:
(1) остановить скачивание,
(2) удалить старый торрент у себя из клиента (старые серии удалять не надо),
(3) скачать новый торрент и запустить его у себя в клиенте вместо старого, при этом указать клиенту путь в старую папку, куда и должно происходить скачивание новых серий.
Ваш клиент при этом должен произвести хеширование (проверку) старой папки (если не производит сам - помогите ему сделать это), и будет докачивать только те серии, которых у вас ещё нет. Старые серии при этом не удаляются, а продолжают раздаваться!
Eсли вы уже удалили старые серии, то предотвратить повторную закачку старых серий можно, отжав галочку в соответсвующих местах при запуске нового торрента. По возможности, желательно не удалять старые серии как можно дольше, чтобы релизёр не столько продолжал раздавать старые серии, а смог сконцентрироваться на новых.

Релиз от: HamsterStudio



   Похожие торренты   Торрент   Размер 
В этой теме нет новых непрочитанных сообщений. Внутри Эми Шумер / Inside Amy Schumer [01x01-04 из 10] (2013) HDTVRip от HamsterStudio | L2

0 | 1

801.85 МБ

В этой теме нет новых непрочитанных сообщений. Внутри Эми Шумер / Inside Amy Schumer [01x01-07 из 10] (2013) HDTVRip от HamsterStudio | L2

4 | 6

1.37 ГБ

В этой теме нет новых непрочитанных сообщений. Внутри Эми Шумер / Inside Amy Schumer [01x01-03 из 10] (2013) HDTVRip от HamsterStudio | L2

8 | 1

601.29 МБ

В этой теме нет новых непрочитанных сообщений. Внутри Эми Шумер / Inside Amy Schumer [01x01-06 из 10] (2013) HDTVRip от HamsterStudio | L2

1 | 4

1.17 ГБ

В этой теме нет новых непрочитанных сообщений. Внутри Эми Шумер / Inside Amy Schumer [01x01-09 из 10] (2013) HDTVRip от HamsterStudio | L2

22 | 3

1.76 ГБ

В этой теме нет новых непрочитанных сообщений. Внутри Эми Шумер / Inside Amy Schumer [01x01 из 10] (2016) HDTVRip от HamsterStudio | L2

24 | 2

200.59 МБ

В этой теме нет новых непрочитанных сообщений. Внутри Эми Шумер / Inside Amy Schumer [01x01-02 из 10] (2016) HDTVRip от HamsterStudio | L2

3 | 1

400.72 МБ




Вы не можете начинать темы
Вы не можете отвечать на сообщения
Вы не можете редактировать свои сообщения
Вы не можете удалять свои сообщения
Вы не можете добавлять вложения

Перейти:  
Для Мосгорсуда, Роскомнадзора и рекламодателей: mosgorsud-torrent[собачка]yandex.ru
Настройки
ppkBB3cker v.2 © 2008-2014 @ PPK
[ Time : 0.021s | 16 Queries | GZIP : Off ]
CGP [Extreme] output time : 0.00192s | 0 Queries | GZIP : Off

Торрент трекер RUTOR.IN, Не можете зайти на rutor.org? Какой новый адрес рутор? Какое зеркало рутор? Не работает rutor.org и зеркала? Тогда наш торрент специально для вас. Rutor.in неофициальное зеркало rutor. В случае если у Вас заблокирован rutor или вдруг Вы не можете на него зайти, то Вы без труда сможете скачать бесплатно и без рекламы последние новинки кино, игр, сериалов и прочего у нас, на Rutor.in. Не нужно использовать прокси, чтобы зайти на рутор, достаточно воспользоваться нашим ресурсом. Все новые фильмы, игры, сериалы, книги и музыка за 2013 и 2014 годы через торрент бесплатно. Скачивайте фильмы в хорошем качестве, игры для пк, xbox, playstation без регистрации. У нас вы найдете новые Зарубежные сериалы и Русские сериалы 2013, 2014, 2015 годов. Оставайтесь с нами, качайте любимые фильмы, игры, сериалы, книги и музыку.