img image001 image001 image001 image001 image001 image001 image001 image001 image001 image001 image001 image001 image001 image001 image001

Planets Sun Sun Sun
Статистика раздачи
Автор: Nickolas3434 | Размер: 7.04 ГБ | Добавлен: 24 май 2016
Раздают: 218    Качают: 68
Скачать торрент
Скачать торрент
Описание торрента

СообщениеДобавлено: 24 май 2016 


Оригинальное название: Деньги
Год выпуска: 2015
Жанр: Драма, криминал
Режиссер: Егор Анашкин
В ролях: Фёдор Лавров, Ольга Дыховичная, Дарья Екамасова, Александр Асташёнок, Анастасия Савосина, Иван Агапов, Мария Беккер, Алексей Фаддеев, Дарья Грачёва, Елена Грехова, Владислав Ветров, Анатолий Калмыков, Сергей Шеховцов, Елена Степанова, Анатолий Узденский, Михаил Владимиров, Александр Числов, Марина Барсукова
Описание: Алексей Баранников – талантливый советский ученый. Будучи совсем молодым, он волей случая оказывается в опале, и его высылают из Москвы. Участь Алексея разделяет его любящая невеста Людмила. В жизни Баранниковых наступают тяжелые времена. Алексей долгие годы тщетно пытается запатентовать свои изобретения, получая бессменный отказ, а все бытовые заботы ложатся на плечи Люды. Однажды Алексей становится случайным свидетелем убийства фальшивомонетчика. Это событие совпадает с тяжелейшем кризисом в жизни Баранниковых. Тогда Алексей решается на сумасшедшую аферу, которая сулит в одночасье изменить унылую, серую жизнь…
Выпущено: Россия, Кинокомпания Русское
Продолжительность: 8 х ~ 00:46:00
Язык: Русский
Качество: WEB-DLRip-AVC
Видео: MPEG-4 AVC, ~ 2450 Кбит/с, 1024x576
Аудио rus: AC3, 2 ch, 192 Кбит/с
Полное имя : E:Dengy.2015.(AVC).tahiy\01.Dengy.2015.AVC.tahiy.mkv
Формат : Matroska
Версия формата : Version 2
Размер файла : 893 Мбайт
Продолжительность : 46 м.
Общий поток : 2674 Кбит/сек
Дата кодирования : UTC 2016-05-22 13:28:43
Программа кодирования : mkvmerge v6.1.0 ('Old Devil') built on Mar 4 2013 09:10:42
Библиотека кодирования : libebml v1.3.0 + libmatroska v1.4.0
Видео
Идентификатор : 1
Формат : AVC
Формат/Информация : Advanced Video Codec
Профиль формата : High@L4.1
Параметр CABAC формата : Да
Параметр ReFrames формата : 8 кадров
Идентификатор кодека : V_MPEG4/ISO/AVC
Продолжительность : 46 м.
Битрейт : 2481 Кбит/сек
Ширина : 1024 пикселя
Высота : 576 пикселей
Соотношение сторон : 16:9
Режим частоты кадров : Постоянный
Частота кадров : 25,000 кадров/сек
Цветовое пространство : YUV
Субдискретизация насыщенности : 4:2:0
Битовая глубина : 8 бит
Тип развёртки : Прогрессивная
Бит/(Пиксели*Кадры) : 0.168
Размер потока : 811 Мбайт (91%)
Библиотека кодирования : x264 core 130 r2273 b3065e6
Настройки программы : cabac=1 / ref=8 / deblock=1:-2:-2 / analyse=0x3:0x113 / me=umh / subme=10 / psy=1 / psy_rd=1.00:0.20 / mixed_ref=1 / me_range=32 / chroma_me=1 / trellis=2 / 8x8dct=1 / cqm=0 / deadzone=21,11 / fast_pskip=0 / chroma_qp_offset=-3 / threads=6 / lookahead_threads=1 / sliced_threads=0 / nr=0 / decimate=0 / interlaced=0 / bluray_compat=0 / constrained_intra=0 / bframes=10 / b_pyramid=2 / b_adapt=2 / b_bias=0 / direct=3 / weightb=1 / open_gop=0 / weightp=2 / keyint=250 / keyint_min=25 / scenecut=40 / intra_refresh=0 / rc_lookahead=40 / rc=2pass / mbtree=0 / bitrate=2481 / ratetol=1.0 / qcomp=0.60 / qpmin=0 / qpmax=69 / qpstep=4 / cplxblur=20.0 / qblur=0.5 / vbv_maxrate=50000 / vbv_bufsize=62500 / nal_hrd=none / ip_ratio=1.40 / pb_ratio=1.30 / aq=1:1.00
Default : Да
Forced : Нет
Аудио
Идентификатор : 2
Формат : AC-3
Формат/Информация : Audio Coding 3
Расширение режима : CM (complete main)
Параметр Endianness формата : Big
Идентификатор кодека : A_AC3
Продолжительность : 46 м.
Вид битрейта : Постоянный
Битрейт : 192 Кбит/сек
Каналы : 2 канала
Расположение каналов : Front: L R
Частота : 44,1 КГц
Битовая глубина : 16 бит
Метод сжатия : С потерями
Размер потока : 64,1 Мбайт (7%)
Default : Да
Forced : Нет





   Похожие торренты   Торрент   Размер 
В этой теме нет новых непрочитанных сообщений. Деньги, деньги, еще деньги / Больше денег / Mo' Money (1992) WEB-DLRip от Leon-masl | A

125 | 13

1.46 ГБ

В этой теме нет новых непрочитанных сообщений. Тяжелые деньги / Трудные деньги / Run for the Money / Hard Cash (2002) WEB-DLRip | P

135 | 35

1.46 ГБ

В этой теме нет новых непрочитанных сообщений. Деньги, деньги, еще деньги / Больше денег / Mo' Money (1992) HDTVRip от Leon-masl | P, A

114 | 13

1.36 ГБ

В этой теме нет новых непрочитанных сообщений. Деньги [01-02 из 08] (2015) WEB-DLRip-AVC от Files-x

79 | 3

1.17 ГБ

В этой теме нет новых непрочитанных сообщений. Деньги [01 из 08] (2015) WEB-DLRip от Files-x

171 | 94

2.34 ГБ

В этой теме нет новых непрочитанных сообщений. Деньги [01-08 из 08] (2015) WEB-DLRip от Generalfilm | КПК

488 | 117

1.46 ГБ

В этой теме нет новых непрочитанных сообщений. Деньги [01 из 08] (2015) WEB-DLRip от Files-x

166 | 11

1.17 ГБ




Вы не можете начинать темы
Вы не можете отвечать на сообщения
Вы не можете редактировать свои сообщения
Вы не можете удалять свои сообщения
Вы не можете добавлять вложения

Перейти:  
Для Мосгорсуда, Роскомнадзора и рекламодателей: mosgorsud-torrent[собачка]yandex.ru
 Вход
ppkBB3cker v.2 © 2008-2014 @ PPK
[ Time : 0.032s | 14 Queries | GZIP : Off ]
CGP output time : 0.036s | 5 Queries | GZIP : Off

Торрент трекер RUTOR.IN, Не можете зайти на rutor.org? Какой новый адрес рутор? Какое зеркало рутор? Не работает rutor.org и зеркала? Тогда наш торрент специально для вас. Rutor.in неофициальное зеркало rutor. В случае если у Вас заблокирован rutor или вдруг Вы не можете на него зайти, то Вы без труда сможете скачать бесплатно и без рекламы последние новинки кино, игр, сериалов и прочего у нас, на Rutor.in. Не нужно использовать прокси, чтобы зайти на рутор, достаточно воспользоваться нашим ресурсом. Все новые фильмы, игры, сериалы, книги и музыка за 2013 и 2014 годы через торрент бесплатно. Скачивайте фильмы в хорошем качестве, игры для пк, xbox, playstation без регистрации. У нас вы найдете новые Зарубежные сериалы и Русские сериалы 2013, 2014, 2015 годов. Оставайтесь с нами, качайте любимые фильмы, игры, сериалы, книги и музыку.