img image001 image001 image001 image001 image001 image001 image001 image001 image001 image001 image001 image001 image001 image001 image001

Planets Sun Sun Sun
Статистика раздачи
Автор: Nickolas3434 | Размер: 12.26 ГБ | Добавлен: 26 май 2016
Раздают: 5    Качают: 5
Скачать торрент
Скачать торрент
Описание торрента

СообщениеДобавлено: 26 май 2016 

Гримм | Grimm
Дополнительные материалы
ко 2-му сезону

«Не ваши обычные подозреваемые»

Информация о фильме:
Название: Гримм
Оригинальное название: Grimm
Год выпуска: 2011-2012
Жанр: ужасы, фэнтези, триллер, драма, детектив, бонусы
Режиссёр: Норберто Барба, Терренс О’Хара, Эрик Ланёвилль и др.
В ролях: Дэвид Джинтоли, Битси Таллок, Сайлас Уэйр Митчелл, Расселл Хорнсби, Саша Ройз, Регги Ли, Клэр Коффи, Бри Тёрнер, Роберт Бланш, Дэнни Бруно и др.
Описание: Здесь представлены эксклюзивные материалы с оригинальных Blu-Ray дисков, куда входят 13 вырезанных сцен, смешные моменты и многое, многое другое...
Grimm Guide (HD): An interactive guide to the many beasts and beasties that populate the Grimm-verse. Brief deions and equally brief video clips accompany most of the monster entries.
Myths, Monsters & Legends: A plot-n-creature featurette about Grimm's expanding mythos.
Creatures and Chaos: A monster-morph and creature-attack montage.
Bad Hair Day Webisodes: A 4-part online mini-episode.
Deleted Scenes: Deleted scenes are available for numerous episodes.
Monroe's Best Moments: A rapidfire shot of Monroe.
Gag Reel: Grimm Lite. Being on set looks like it'd be a blast.


Страна: США, GK Productions, Hazy Mills Productions, Universal TV
Продолжительность:
13x ~00:07:00 - Deleted Scenes
21x ~00:00:35 - Grimm Guide Creatures
4x ~00:02:00 - Bad Hair Day Webisodes
00:02:59 - Creatures and Chaos
00:02:18 - Monroe's Best Moments
00:10:23 - Myths, Monsters & Legends
00:05:11 - Gag Reel

Перевод: Английский
Субтитры: Английские: вшитые, отключаемые
Файл:
Формат: MKV
Видео кодек: MPEG-4 AVC
Аудио кодек: AC3
Свойства видео: 1920x1080 (16:9), 23.976 fps, ~27000 kbps, 0.56 bits/pixel
Аудио : 48 kHz, AC3, 2 (L,R) ch, ~192.00 kbps avg
General
Unique ID : 245217950601313837744357361668650826715 (0xB87B4267CE00DC828FF3A334B105FBDB)
Complete name : G:GrimmGrimm S02 Extras BDRemux 1080p Rus Eng Subs by Stiles RG SerialSGrimm S02 Gag Reel BDRemux 1080p Eng Subs by Stiles RG SerialS.mkv
Format : Matroska
Format version : Version 4 / Version 2
File size : 936 MiB
Duration : 5mn 11s
Overall bit rate mode : Variable
Overall bit rate : 25.2 Mbps
Movie name : Grimm S02 Gag Reel BDRemux 1080p Eng Subs by Stiles RG SerialS
Encoded date : UTC 2016-05-25 08:52:20
Writing application : mkvmerge v7.9.0 ('Birds') 64bit
Writing library : libebml v1.3.1 + libmatroska v1.4.2
DURATION : 00:04:27.184000000
NUMBER_OF_FRAMES : 194
NUMBER_OF_BYTES : 631919
_STATISTICS_WRITING_APP : mkvmerge v7.9.0 ('Birds') 64bit
_STATISTICS_WRITING_DATE_UT : 2016-05-25 08:52:20
_STATISTICS_TAGS : BPS DURATION NUMBER_OF_FRAMES NUMBER_OF_BYTES
Video
ID : 1
Format : AVC
Format/Info : Advanced Video Codec
Format profile : High@L4.1
Format settings, CABAC : Yes
Format settings, ReFrames : 4 frames
Codec ID : V_MPEG4/ISO/AVC
Duration : 5mn 11s
Bit rate mode : Variable
Bit rate : 24.5 Mbps
Maximum bit rate : 35.0 Mbps
Width : 1 920 pixels
Height : 1 080 pixels
Display aspect ratio : 16:9
Frame rate mode : Constant
Frame rate : 23.976 fps
Color space : YUV
Chroma subsampling : 4:2:0
Bit depth : 8 bits
Scan type : Progressive
Bits/(Pixel*Frame) : 0.494
Stream size : 910 MiB (97%)
Language : English
Default : Yes
Forced : No
Audio
ID : 2
Format : AC-3
Format/Info : Audio Coding 3
Mode extension : CM (complete main)
Format settings, Endianness : Big
Codec ID : A_AC3
Duration : 5mn 11s
Bit rate mode : Constant
Bit rate : 192 Kbps
Channel(s) : 2 channels
Channel positions : Front: L R
Sampling rate : 48.0 KHz
Compression mode : Lossy
Stream size : 7.12 MiB (1%)
Language : English
Default : Yes
Forced : No
Text
ID : 3
Format : PGS
Muxing mode : zlib
Codec ID : S_HDMV/PGS
Codec ID/Info : Picture based subtitle format used on BDs/HD-DVDs
Language : English
Default : Yes
Forced : No



Релиз от: Stiles



   Похожие торренты   Торрент   Размер 
В этой теме нет новых непрочитанных сообщений. Гримм / Grimm [S01] (2011-2012) BDRemux 1080р | Дополнительные материалы

16 | 5

12.82 ГБ

В этой теме нет новых непрочитанных сообщений. Гримм / Grimm [S02] (2012-2013) BDRemux 1080р | LostFilm

3 | 24

194.73 ГБ

В этой теме нет новых непрочитанных сообщений. Гримм / Grimm [S01] (2011-2012) BDRemux 1080р | LostFilm

14 | 11

195.26 ГБ

В этой теме нет новых непрочитанных сообщений. Древние / The Originals [S01] (2013-2014) BDRemux 1080р | Дополнительные материалы

9 | 2

9.26 ГБ

В этой теме нет новых непрочитанных сообщений. Древние / The Originals [S02] (2014-2015) BDRemux 1080р | Дополнительные материалы

11 | 4

5.44 ГБ

В этой теме нет новых непрочитанных сообщений. Гримм / Grimm [S02] (2012-2013) WEB-DL 720p | LostFilm

32 | 13

31.91 ГБ

В этой теме нет новых непрочитанных сообщений. Гримм / Grimm [S02] (2012-2013) WEB-DL 1080p | LostFilm

21 | 7

38.83 ГБ




Вы не можете начинать темы
Вы не можете отвечать на сообщения
Вы не можете редактировать свои сообщения
Вы не можете удалять свои сообщения
Вы не можете добавлять вложения

Перейти:  
Для Мосгорсуда, Роскомнадзора и рекламодателей: mosgorsud-torrent[собачка]yandex.ru
 Вход
ppkBB3cker v.2 © 2008-2014 @ PPK
[ Time : 0.065s | 15 Queries | GZIP : Off ]

Торрент трекер RUTOR.IN, Не можете зайти на rutor.org? Какой новый адрес рутор? Какое зеркало рутор? Не работает rutor.org и зеркала? Тогда наш торрент специально для вас. Rutor.in неофициальное зеркало rutor. В случае если у Вас заблокирован rutor или вдруг Вы не можете на него зайти, то Вы без труда сможете скачать бесплатно и без рекламы последние новинки кино, игр, сериалов и прочего у нас, на Rutor.in. Не нужно использовать прокси, чтобы зайти на рутор, достаточно воспользоваться нашим ресурсом. Все новые фильмы, игры, сериалы, книги и музыка за 2013 и 2014 годы через торрент бесплатно. Скачивайте фильмы в хорошем качестве, игры для пк, xbox, playstation без регистрации. У нас вы найдете новые Зарубежные сериалы и Русские сериалы 2013, 2014, 2015 годов. Оставайтесь с нами, качайте любимые фильмы, игры, сериалы, книги и музыку.