img image001 image001 image001 image001 image001 image001 image001 image001 image001 image001 image001 image001 image001 image001 image001

Planets Sun Sun Sun
Статистика раздачи
Автор: Nickolas3434 | Размер: 892.22 МБ | Добавлен: 27 май 2016
Раздают: 2    Качают: 1
Скачать торрент
Скачать торрент
Описание торрента

СообщениеДобавлено: 27 май 2016 

Название: Уэйворд Пайнс / Сосны
Оригинальное название: Wayward Pines
Год выхода: 2016
Жанр: драма, триллер, фантастика
Режиссер:
Зал Батманглидж, Тим Хантер, Нимрод Антал
В ролях:
Мэтт Диллон, Карла Гуджино, Тоби Джонс, Шаннин Соссамон, Рид Даймонд, Тим Гриффин, Чарли Тахэн, Джульетт Льюис, Мелисса Лео, Терренс Ховард и др.
Описание сериала:
Агент секретной службы Итан Берк приезжает в пасторальный городок Уэйуорд Пайнс в Айдахо, чтобы найти двух пропавших фэбээровцев. Но расследование вместо ответов приносит лишь новые вопросы. Что же происходит в Уэйуорд Пайнс?

Страна: США
Продолжительность: ~ 00:45:00
Файл
Кодек: (AVI) XviD
Качество: HDTVRip
Перевод: Любительский (двухголосый) Sunshine Studio
Субтитры: Отсутствуют
Реклама: Присутствует
Видео: MPEG-4 AVC, 3000 Кбит/с, 1280x720
Аудио: 48 kHz, AC3 Dolby Digital, 2/0 (L,R) ch, ~192 kbps
Релиз группа:

Формат : Matroska
Версия формата : Version 4 / Version 2
Размер файла : 892 Мбайт
Продолжительность : 43 м.
Общий поток : 2874 Кбит/сек
Дата кодирования : UTC 2016-05-26 08:32:30
Программа кодирования : mkvmerge v6.1.0 ('Old Devil') built on Mar 4 2013 09:10:42
Библиотека кодирования : libebml v1.3.0 + libmatroska v1.4.0
Видео
Идентификатор : 1
Формат : AVC
Формат/Информация : Advanced Video Codec
Профиль формата : High@L3.1
Параметр CABAC формата : Да
Параметр ReFrames формата : 4 кадра
Идентификатор кодека : V_MPEG4/ISO/AVC
Продолжительность : 43 м.
Битрейт : 2625 Кбит/сек
Ширина : 1280 пикселей
Высота : 720 пикселей
Соотношение сторон : 16:9
Режим частоты кадров : Постоянный
Частота кадров : 23,976 (23976/1000) кадра/сек
Цветовое пространство : YUV
Субдискретизация насыщенности : 4:2:0
Битовая глубина : 8 бит
Тип развёртки : Прогрессивная
Бит/(Пиксели*Кадры) : 0.119
Размер потока : 815 Мбайт (91%)
Библиотека кодирования : x264 core 130 r2273 b3065e6
Настройки программы : cabac=1 / ref=1 / deblock=1:0:0 / analyse=0x3:0x113 / me=hex / subme=2 / psy=1 / psy_rd=1.00:0.10 / mixed_ref=0 / me_range=16 / chroma_me=1 / trellis=0 / 8x8dct=1 / cqm=0 / deadzone=21,11 / fast_pskip=1 / chroma_qp_offset=0 / threads=6 / lookahead_threads=2 / sliced_threads=0 / nr=0 / decimate=1 / interlaced=0 / bluray_compat=0 / constrained_intra=0 / bframes=3 / b_pyramid=2 / b_adapt=1 / b_bias=0 / direct=1 / weightb=1 / open_gop=0 / weightp=1 / keyint=250 / keyint_min=23 / scenecut=40 / intra_refresh=0 / rc_lookahead=10 / rc=crf / mbtree=1 / crf=17.0 / qcomp=0.60 / qpmin=0 / qpmax=69 / qpstep=4 / ip_ratio=1.40 / aq=1:1.00
Язык : English
Default : Да
Forced : Нет
Аудио
Идентификатор : 2
Формат : AC-3
Формат/Информация : Audio Coding 3
Расширение режима : CM (complete main)
Параметр Endianness формата : Big
Идентификатор кодека : A_AC3
Продолжительность : 43 м.
Вид битрейта : Постоянный
Битрейт : 192 Кбит/сек
Каналы : 2 канала
Расположение каналов : Front: L R
Частота : 48,0 КГц
Частота кадров : 31,250 кадров/сек (1536 spf)
Метод сжатия : С потерями
Размер потока : 59,6 Мбайт (7%)
Default : Да
Forced : Нет
Внимание! Раздача ведётся путём добавления новых серий; при каждом добавлении создаётся новый торрент. Чтобы начать докачку новой серии, пользователям необходимо сделать следующее:
(1) остановить скачивание,
(2) удалить старый торрент у себя из клиента (старые серии удалять не надо),
(3) скачать новый торрент и запустить его у себя в клиенте вместо старого, при этом указать клиенту путь в старую папку куда и должно происходить скачивание новых серий.
Ваш клиент при этом должен произвести хеширование (проверку) старой папки (если не производит сам - помогите ему сделать это), и будет докачивать только те серии которых у вас ещё нет. Старые серии при этом не удаляются, а продолжают раздаваться!
Eсли вы уже удалили старые серии, то предотвратить повторную закачку старых серий можно, отжав галочку в соответсвующих местах при запуске нового торрента. По возможности, желательно не удалять старые серии как можно дольше чтобы релизёр не столько продолжал раздавать старые серии, а смог сконцентрироваться на новых.



   Похожие торренты   Торрент   Размер 
В этой теме нет новых непрочитанных сообщений. Уэйуорд Пайнс (Сосны) / Wayward Pines [02х01 из 10] (2016) HDTVRip | Sunshine Studio

4 | 1

602.88 МБ

В этой теме нет новых непрочитанных сообщений. Уэйуорд Пайнс / Сосны / Wayward Pines [02х01 из 10] (2016) WEB-DLRip | Baibako

2 | 4

603.32 МБ

В этой теме нет новых непрочитанных сообщений. Уэйуорд Пайнс / Сосны / Wayward Pines [02х01 из 10] (2016) WEB-DL 720p | Baibako

0 | 5

1.5 ГБ

В этой теме нет новых непрочитанных сообщений. Уэйуорд Пайнс / Сосны / Wayward Pines [02х01 из 10] (2016) WEB-DL 1080p | Baibako

4 | 5

1.7 ГБ

В этой теме нет новых непрочитанных сообщений. Уэйворд Пайнс / Уэйуорд Пайнс / Сосны / Wayward Pines [01x01-03 из 10] (2015) HDTV 720p | P | FOX

22 | 10

2.7 ГБ

В этой теме нет новых непрочитанных сообщений. Уэйворд Пайнс / Уэйуорд Пайнс / Сосны / Wayward Pines [01x01-05 из 10] (2015) HDTV 720p | P | FOX

13 | 13

4.31 ГБ

В этой теме нет новых непрочитанных сообщений. Уэйворд Пайнс / Уэйуорд Пайнс / Сосны / Wayward Pines [01x01-06 из 10] (2015) HDTV 720p от CasStudio | P | FOX

22 | 44

5.14 ГБ




Вы не можете начинать темы
Вы не можете отвечать на сообщения
Вы не можете редактировать свои сообщения
Вы не можете удалять свои сообщения
Вы не можете добавлять вложения

Перейти:  
Для Мосгорсуда, Роскомнадзора и рекламодателей: mosgorsud-torrent[собачка]yandex.ru
 Вход
ppkBB3cker v.2 © 2008-2014 @ PPK
[ Time : 0.050s | 16 Queries | GZIP : Off ]

cron