img image001 image001 image001 image001 image001 image001 image001 image001 image001 image001 image001 image001 image001 image001 image001

Planets Sun Sun Sun
Статистика раздачи
Автор: Nickolas3434 | Размер: 3.37 ГБ | Добавлен: 27 май 2016
Раздают: 272    Качают: 120
Скачать торрент
Скачать торрент
Описание торрента

СообщениеДобавлено: 27 май 2016 


Волчья яма / Wolf Creek
Страна: Австралия
Производство: Emu Creek Pictures, Screentime
Год выпуска: 2016
Жанр: ужасы, триллер, драма
Сезон: 1
Серии: 1-6 (из 6)
Продолжительность: 6х ~00:45:00
Режиссеры: Грег МакЛин, Тони Тилс
Авторы сценария: Питер Гоулер, Грег МакЛин, Фелисити Паккард
В ролях: Люси Фрай, Джон Джэррэт, Дастин Клер, Эдди Бару, Алисия Гардинер, Энди МакФи, Ричард Коуторн, Джэйк Райан
Описание: Ева могла стать очередной жертвой сумасшедшего серийного убийцы Мика Тейлора. Но ей удается избежать смерти от рук маньяка. И теперь она одержима одной только местью...

Перевод: Любительский (одноголосый, закадровый) | Project_Web_Mania
Субтитры: нет

Качество: WEBRip
Формат: AVI
Видео кодек: XviD
Аудио кодек: АС3
Видео: 720x400 (16:9), 24.000 fps, XviD ~1 500 kbps avg
Аудио: 44.1 kHz, AC3 Dolby Digital, 2/0 (L,R) ch, ~192 kbps
Дата премьеры (мир): 12 мая 2016

General
Format : AVI
Format/Info : Audio Video Interleave
Overall bit rate : 2 799 Kbps
Writing application : Lavf57.25.100
Video
ID : 0
Format : MPEG-4 Visual
Format profile : Advanced Simple@L5
Format settings, BVOP : 2
Format settings, QPel : No
Format settings, GMC : No warppoints
Format settings, Matrix : Default (MPEG)
Codec ID : XVID
Codec ID/Hint : XviD
Bit rate : 1 470 Kbps
Width : 720 pixels
Height : 400 pixels
Display aspect ratio : 16:9
Frame rate : 24.000 fps
Color space : YUV
Chroma subsampling : 4:2:0
Bit depth : 8 bits
Scan type : Progressive
Compression mode : Lossy
Bits/(Pixel*Frame) : 0.405
Stream size : 20.5 MiB (93%)
Writing library : XviD 1.2.1 (UTC 2008-12-04)
Audio
ID : 1
Format : AC-3
Format/Info : Audio Coding 3
Mode extension : CM (complete main)
Format settings, Endianness : Big
Codec ID : 2000
Bit rate mode : Constant
Bit rate : 192 Kbps
Channel(s) : 2 channels
Channel positions : Front: L R
Sampling rate : 44.1 KHz
Bit depth : 16 bits
Compression mode : Lossy
Stream size : 1.40 MiB (6%)
Alignment : Split accross interleaves
Interleave, duration : 35 ms (0.84 video frame)




   Похожие торренты   Торрент   Размер 
В этой теме нет новых непрочитанных сообщений. Волчья яма / Wolf Creek [S01] (2016) WEBRip | КПК от ImperiaFilm | L1

24 | 1

994.96 МБ

В этой теме нет новых непрочитанных сообщений. Волчья яма / Wolf Creek [S01] (2016) WEBRip 720р | L1

197 | 64

2.43 ГБ

В этой теме нет новых непрочитанных сообщений. Волчья яма / Wolf Creek [S01] (2016) WEBRip 720р | L, L2, L1

74 | 10

3.54 ГБ

В этой теме нет новых непрочитанных сообщений. Волчья яма / Wolf Creek [S01] (2016) WEBRip 720p | KinoView

0 | 0

2.82 ГБ

В этой теме нет новых непрочитанных сообщений. Волчья яма / Wolf Creek [S01] (2016) WEBRip 720p | KinoView

38 | 15

6.76 ГБ

В этой теме нет новых непрочитанных сообщений. Волчья яма / Wolf Creek [01x01 из 06] (2016) WEBRip | ViruseProject

3 | 1

663.85 МБ

В этой теме нет новых непрочитанных сообщений. Волчья яма / Wolf Creek [S01] (2016) WEBRip 720р от GeneralFilm | BaibaKo

80 | 16

3.14 ГБ




Вы не можете начинать темы
Вы не можете отвечать на сообщения
Вы не можете редактировать свои сообщения
Вы не можете удалять свои сообщения
Вы не можете добавлять вложения

Перейти:  
Для Мосгорсуда, Роскомнадзора и рекламодателей: mosgorsud-torrent[собачка]yandex.ru
 Вход
ppkBB3cker v.2 © 2008-2014 @ PPK
[ Time : 0.026s | 17 Queries | GZIP : Off ]

Торрент трекер RUTOR.IN, Не можете зайти на rutor.org? Какой новый адрес рутор? Какое зеркало рутор? Не работает rutor.org и зеркала? Тогда наш торрент специально для вас. Rutor.in неофициальное зеркало rutor. В случае если у Вас заблокирован rutor или вдруг Вы не можете на него зайти, то Вы без труда сможете скачать бесплатно и без рекламы последние новинки кино, игр, сериалов и прочего у нас, на Rutor.in. Не нужно использовать прокси, чтобы зайти на рутор, достаточно воспользоваться нашим ресурсом. Все новые фильмы, игры, сериалы, книги и музыка за 2013 и 2014 годы через торрент бесплатно. Скачивайте фильмы в хорошем качестве, игры для пк, xbox, playstation без регистрации. У нас вы найдете новые Зарубежные сериалы и Русские сериалы 2013, 2014, 2015 годов. Оставайтесь с нами, качайте любимые фильмы, игры, сериалы, книги и музыку.
cron