img image001 image001 image001 image001 image001 image001 image001 image001 image001 image001 image001 image001 image001 image001 image001

Planets Sun Sun Sun
Статистика раздачи
Автор: Nickolas3434 | Размер: 16.79 ГБ | Добавлен: 03 июн 2016
Раздают: 105    Качают: 38
Скачать торрент
Скачать торрент
Описание торрента

СообщениеДобавлено: 03 июн 2016 


Выжить После
Страна: Россия
Производство: Арт Пикчерс Вижн, Канал СТС
Год выпуска: 2013-2016
Жанр: триллер
Сезоны: 1-3
Серии: 1-36 (из 36)
Продолжительность: 36х ~00:48:00
Режиссеры: Душан Глигоров, Александр Богуславский, Андрей Комаров
Авторы сценария: Анастасия Истомина, Нина Урманова, Александр Чубарьян
В ролях: Ирина Баринова, Антон Батырев, Сергей Белов, Мария Белоненко, Григорий Данцигер, Евгения Розанова, Дмитрий Ендальцев, Сергей Годин
Описание: Прошло некоторое время с тех пор, как вирус «Клейто» превратил Москву в город-призрак, населённый мутантками. Город по-прежнему изолирован от внешнего мира, и контролируется корпорацией «Вершина», сменившей руководство, но не цели. Скрывая от общественности правду, и утверждая, что в городе не осталось выживших, корпорация продолжает исследования вируса, используя город как своего рода испытательный полигон для заражённых.
Учёные корпорации выясняют, что вирус мутирует, постепенно наделяя своих носителей свойствами, необходимыми для выживания. Группа выживших молодых людей находится внутри закрытого города без связи и защиты. Объединяясь в группы или действуя поодиночке, они пытаются спасти свои жизни не только от заражённых особей, но также и от боевиков корпорации, зачищающих город от нежелательных свидетелей. У них у всех разные цели — кто-то хочет любой ценой покинуть город, а кто-то намерен остаться и начать войну против корпорации, чтобы отомстить за гибель своих близких...

Перевод: не требуется (оригинал)
Субтитры: нет

Качество: SATRip-AVC
Формат: МКV
Видео кодек: AVC
Аудио кодек: АС3
Видео: 720x416 (1.731), 25.000 fps, MPEG-4 AVC ~1 400 kbps avg
Аудио: 48.0 kHz, AC3 Dolby Digital, 2/0 (L,R) ch, ~192 kbps
Дата премьеры (РФ): 18 ноября 2013
Релиз от:
General
Уникальный идентификатор : 182561905621351728605928741838601644373 (0x895824E2098DBFD386A434008738E955)
Полное имя : Выжить после.SATRip.AVC.RG Русские сериалыСезон 3s03e01.mkv
Формат : Matroska
Версия формата : Version 2
Размер файла : 543 Мбайт
Продолжительность : 47 м.
Общий поток : 1597 Кбит/сек
Название фильма : Выжить после.s03e01.AVC.Doc66
Дата кодирования : UTC 2016-02-20 12:23:07
Программа кодирования : mkvmerge v5.8.0 ('No Sleep / Pillow') built on Sep 2 2012 15:37:04
Библиотека кодирования : libebml v1.2.3 + libmatroska v1.3.0
Видео
Идентификатор : 1
Формат : AVC
Формат/Информация : Advanced Video Codec
Профиль формата : High@L3.1
Параметр CABAC формата : Да
Параметр ReFrames формата : 8 кадров
Идентификатор кодека : V_MPEG4/ISO/AVC
Продолжительность : 47 м.
Битрейт : 1373 Кбит/сек
Ширина : 720 пикселей
Высота : 416 пикселей
Соотношение сторон : 1,731
Режим частоты кадров : Постоянный
Частота кадров : 25,000 кадров/сек
Цветовое пространство : YUV
Субдискретизация насыщенности : 4:2:0
Битовая глубина : 8 бит
Тип развёртки : Прогрессивная
Бит/(Пиксели*Кадры) : 0.183
Размер потока : 467 Мбайт (86%)
Библиотека кодирования : x264 core 130 r2273 b3065e6
Настройки программы : cabac=1 / ref=8 / deblock=1:-2:-1 / analyse=0x3:0x113 / me=umh / subme=9 / psy=1 / psy_rd=1.00:0.15 / mixed_ref=1 / me_range=24 / chroma_me=1 / trellis=2 / 8x8dct=1 / cqm=0 / deadzone=21,11 / fast_pskip=1 / chroma_qp_offset=-3 / threads=6 / lookahead_threads=1 / sliced_threads=0 / nr=0 / decimate=1 / interlaced=0 / bluray_compat=0 / constrained_intra=0 / bframes=8 / b_pyramid=2 / b_adapt=2 / b_bias=0 / direct=1 / weightb=1 / open_gop=0 / weightp=2 / keyint=250 / keyint_min=25 / scenecut=40 / intra_refresh=0 / rc=crf / mbtree=0 / crf=18.0 / qcomp=0.60 / qpmin=0 / qpmax=69 / qpstep=4 / ip_ratio=1.40 / pb_ratio=1.30 / aq=2:0.70
Default : Да
Forced : Нет
Аудио
Идентификатор : 2
Формат : AC-3
Формат/Информация : Audio Coding 3
Расширение режима : CM (complete main)
Параметр Endianness формата : Big
Идентификатор кодека : A_AC3
Продолжительность : 47 м.
Вид битрейта : Постоянный
Битрейт : 192 Кбит/сек
Каналы : 2 канала
Расположение каналов : Front: L R
Частота : 48,0 КГц
Метод сжатия : С потерями
Размер потока : 65,3 Мбайт (12%)
Default : Да
Forced : Нет




   Похожие торренты   Торрент   Размер 
В этой теме нет новых непрочитанных сообщений. Discovery. Выжить вместе / Выжить вдвоем / Dual Survival [S01] (2010) SATRip от GeneralFilm | P

17 | 15

5.32 ГБ

В этой теме нет новых непрочитанных сообщений. Discovery. Выжить вместе / Выжить вдвоем / Dual Survival [S02] (2010) SATRip от GeneralFilm

14 | 11

6.38 ГБ

В этой теме нет новых непрочитанных сообщений. Выжить после [S02] (2016) SATRip от РиперАМ

1699 | 979

7.94 ГБ

В этой теме нет новых непрочитанных сообщений. Выжить после [01-12 из 12] (2013) SATRip

2765 | 487

6.28 ГБ

В этой теме нет новых непрочитанных сообщений. Выжить после [01-10 из 12] (2013) SATRip

9 | 42

5.23 ГБ

В этой теме нет новых непрочитанных сообщений. Выжить после [02x01-05 из 12] (2016) SATRip от РиперАМ

2106 | 534

3.26 ГБ

В этой теме нет новых непрочитанных сообщений. Выжить после [02x01-06 из 12] (2016) SATRip от РиперАМ

593 | 585

3.94 ГБ




Вы не можете начинать темы
Вы не можете отвечать на сообщения
Вы не можете редактировать свои сообщения
Вы не можете удалять свои сообщения
Вы не можете добавлять вложения

Перейти:  
Для Мосгорсуда, Роскомнадзора и рекламодателей: mosgorsud-torrent[собачка]yandex.ru
 Вход
ppkBB3cker v.2 © 2008-2014 @ PPK
[ Time : 1.464s | 13 Queries | GZIP : Off ]
CGP output time : 0.029s | 5 Queries | GZIP : Off

Торрент трекер RUTOR.IN, Не можете зайти на rutor.org? Какой новый адрес рутор? Какое зеркало рутор? Не работает rutor.org и зеркала? Тогда наш торрент специально для вас. Rutor.in неофициальное зеркало rutor. В случае если у Вас заблокирован rutor или вдруг Вы не можете на него зайти, то Вы без труда сможете скачать бесплатно и без рекламы последние новинки кино, игр, сериалов и прочего у нас, на Rutor.in. Не нужно использовать прокси, чтобы зайти на рутор, достаточно воспользоваться нашим ресурсом. Все новые фильмы, игры, сериалы, книги и музыка за 2013 и 2014 годы через торрент бесплатно. Скачивайте фильмы в хорошем качестве, игры для пк, xbox, playstation без регистрации. У нас вы найдете новые Зарубежные сериалы и Русские сериалы 2013, 2014, 2015 годов. Оставайтесь с нами, качайте любимые фильмы, игры, сериалы, книги и музыку.