img image001 image001 image001 image001 image001 image001 image001 image001 image001 image001 image001 image001 image001 image001 image001

Planets Sun Sun Sun
Статистика раздачи
Автор: Nickolas3434 | Размер: 3.42 ГБ | Добавлен: 04 июн 2016
Раздают: 14    Качают: 1
Скачать торрент
Скачать торрент
Описание торрента

СообщениеДобавлено: 04 июн 2016 


Скрытое / Undercover
Страна: Великобритания
Производство: BBC America, Grafton House Productions
Год выпуска: 2016
Жанр: триллер, драма
Сезон: 1
Серии: 1-5 (из 6)
Продолжительность: х ~01:00:00
Режиссеры: Джеймс Хоуз, Джим О’Хенлон
Автор сценария: Питер Моффат
В ролях: Адриан Лестер, Шеннон Хэйес, Тамара Лоуренс, Дерек Ридделл, Винсент Риган, Софи Оконедо, Алистэр Петри, Деннис Хейсбёрт
Описание: Сюжет сериала показывает довольно мрачное будущее. Загадочные создания из страниц книжных мифов проникли в наш реальный мир, и покорили его себе. Теперь люди объединяются в группу и вынуждены искать убежище для того, что бы защититься от врага. Главные герои два брата, которые уже очень давно практически не общаются и являются врагами, но общее горе заставляет их объединиться...

Перевод: Любительский (одноголосый, закадровый) | Project_Web_Mania
Субтитры: нет

Качество: HDTVRip
Формат: AVI
Видео кодек: XviD
Аудио кодек: АС3
Видео: 720x400 (16:9), 30.000 fps, XviD ~864 kbps avg
Аудио: 44.1 kHz, AC3 Dolby Digital, 2/0 (L,R) ch, ~192 kbps
Дата премьеры (мир): 3 апреля 2016
General
Format : AVI
Format/Info : Audio Video Interleave
Overall bit rate : 1 067 Kbps
Writing application : Lavf57.25.100
Video
ID : 0
Format : MPEG-4 Visual
Format profile : Advanced Simple@L5
Format settings, BVOP : 2
Format settings, QPel : No
Format settings, GMC : No warppoints
Format settings, Matrix : Default (MPEG)
Codec ID : XVID
Codec ID/Hint : XviD
Bit rate : 864 Kbps
Width : 720 pixels
Height : 400 pixels
Display aspect ratio : 16:9
Frame rate : 25.000 fps
Color space : YUV
Chroma subsampling : 4:2:0
Bit depth : 8 bits
Scan type : Progressive
Compression mode : Lossy
Bits/(Pixel*Frame) : 0.120
Stream size : 6.21 MiB (81%)
Writing library : XviD 1.2.1 (UTC 2008-12-04)
Audio
ID : 1
Format : AC-3
Format/Info : Audio Coding 3
Mode extension : CM (complete main)
Format settings, Endianness : Big
Codec ID : 2000
Bit rate mode : Constant
Bit rate : 192 Kbps
Channel(s) : 2 channels
Channel positions : Front: L R
Sampling rate : 44.1 KHz
Bit depth : 16 bits
Compression mode : Lossy
Delay relative to video : 41ms
Stream size : 1.38 MiB (18%)
Alignment : Split accross interleaves
Interleave, duration : 35 ms (0.87 video frame)
Interleave, preload duration : 6 ms




   Похожие торренты   Торрент   Размер 
В этой теме нет новых непрочитанных сообщений. Скрытое / Undercover [S01] (2016) HDTVRip | L1

99 | 23

4.1 ГБ

В этой теме нет новых непрочитанных сообщений. Спецотряд Кобра 11: Undercover / Alarm for Cobra 11: Crash Time 5 - Undercover / Alarm für Cobra 11: Crash Time 5 - Undercover (2012) PC | RePack от R.G. Механики

808 | 51

767.58 МБ

В этой теме нет новых непрочитанных сообщений. Скрытое Средиземноморье с Тревором Макдональдом / The secret mediterranean [01x04 из 04] (2011) HDTVRip (AVC) от RadioXyLigaN_Lukavaya

5 | 5

4.72 ГБ

В этой теме нет новых непрочитанных сообщений. Семейство Блюз под прикрытием / Undercover Blues (1993) HDTVRip от NovaLan

4 | 3

1.56 ГБ

В этой теме нет новых непрочитанных сообщений. Семейство Блюз под прикрытием / Undercover Blues (1993) HDTVRip 720p от Brazzass

100 | 51

4.68 ГБ

В этой теме нет новых непрочитанных сообщений. Скрытое / Caché (2005) DVDRip

3 | 3

698.92 МБ

В этой теме нет новых непрочитанных сообщений. Скрытое / Cache (2005) HDRip от Scarabey | P

59 | 12

744.6 МБ




Вы не можете начинать темы
Вы не можете отвечать на сообщения
Вы не можете редактировать свои сообщения
Вы не можете удалять свои сообщения
Вы не можете добавлять вложения

Перейти:  
Для Мосгорсуда, Роскомнадзора и рекламодателей: mosgorsud-torrent[собачка]yandex.ru
 Вход
ppkBB3cker v.2 © 2008-2014 @ PPK
[ Time : 0.048s | 14 Queries | GZIP : Off ]

Торрент трекер RUTOR.IN, Не можете зайти на rutor.org? Какой новый адрес рутор? Какое зеркало рутор? Не работает rutor.org и зеркала? Тогда наш торрент специально для вас. Rutor.in неофициальное зеркало rutor. В случае если у Вас заблокирован rutor или вдруг Вы не можете на него зайти, то Вы без труда сможете скачать бесплатно и без рекламы последние новинки кино, игр, сериалов и прочего у нас, на Rutor.in. Не нужно использовать прокси, чтобы зайти на рутор, достаточно воспользоваться нашим ресурсом. Все новые фильмы, игры, сериалы, книги и музыка за 2013 и 2014 годы через торрент бесплатно. Скачивайте фильмы в хорошем качестве, игры для пк, xbox, playstation без регистрации. У нас вы найдете новые Зарубежные сериалы и Русские сериалы 2013, 2014, 2015 годов. Оставайтесь с нами, качайте любимые фильмы, игры, сериалы, книги и музыку.