img image001 image001 image001 image001 image001 image001 image001 image001 image001 image001 image001 image001 image001 image001 image001

Planets Sun Sun Sun
Статистика раздачи
Автор: Nickolas3434 | Размер: 7.73 ГБ | Добавлен: 04 июн 2016
Раздают: 12    Качают: 0
Скачать торрент
Скачать торрент
Описание торрента

СообщениеДобавлено: 04 июн 2016 


Информация о фильме
Название: Конь белый
Год выхода: 1993
Жанр: Драма, военный, история
Режиссер: Гелий Рябов
В ролях: Валерий Доронин, Элина Суворова, Екатерина Беликова, Иван Краско, Андрей Краско, Николай Кочегаров, Владимир Белоусов, Владимир Симонов, Вероника Изотова, Анатолий Гузенко, Геннадий Глаголев, Александр Балуев, Анатолий Петров
О фильме:
Россия накануне революции. Драматическая судьба адмирала Колчака, командующего флотом. Страшная кончина царской семьи и обстоятельства расследования ее гибели, проводимое по поручению Колчака. Фильм рассказывает о жестоком и бессмысленном противостоянии двух частей народа, - противостоянии, которое ведет к гибели страны...
Страна: Россия, Диапазон, Лада-Банк
Продолжительность: 10 х ~ 00:50:10
Перевод: не требуется
Файл
Кодек: x264
Качество: DVDRip-AVC
Видео: MPEG-4 AVC, ~ 2000 Кбит/с, 694x570@740x570
Звук: AC3, 2 ch, 192 Кбит/с

01. Гибель
02. Ненависть
03. Предательство
04. Братоубийство
05. Нетерпимость
06. Суд божий
07. Исход
08. Перетерпевшие до конца
09. Отверженные
10. Мститель

raw [info]: 694x570p 16:15 @ 25/1 fps (cfr)
x264 [info]: using SAR=16/15
x264 [info]: using cpu capabilities: MMX2 SSE2Fast SSSE3 SSE4.2 AVX
x264 [info]: profile High, level 4.1
x264 [info]: frame I:358 Avg QP:16.20 size: 68301
x264 [info]: frame P:16759 Avg QP:19.93 size: 24152
x264 [info]: frame B:55508 Avg QP:21.44 size: 5353
======================================================
Общее
Уникальный идентификатор : 183440902935033511201382145086667364534 (0x8A016ECBE6F9831687DD3606E75C18B6)
Полное имя : R:МОИ РИПЫКонь белый_1993-DVDRip-AVCКонь-1.mkv
Формат : Matroska
Версия формата : Version 2
Размер файла : 760 Мбайт
Продолжительность : 48 м.
Общий поток : 2194 Кбит/сек
Дата кодирования : UTC 2016-05-31 12:47:17
Программа кодирования : mkvmerge v5.8.0 ('No Sleep / Pillow') built on Sep 2 2012 15:37:04
Библиотека кодирования : libebml v1.2.3 + libmatroska v1.3.0
Видео
Идентификатор : 1
Формат : AVC
Формат/Информация : Advanced Video Codec
Профиль формата : High@L4.1
Параметр CABAC формата : Да
Параметр ReFrames формата : 14 кадров
Идентификатор кодека : V_MPEG4/ISO/AVC
Продолжительность : 48 м.
Битрейт : 2000 Кбит/сек
Ширина : 694 пикселя
Высота : 570 пикселей
Соотношение сторон : 1,298
Соотношение сторон в оригинале : 1,299
Режим частоты кадров : Постоянный
Частота кадров : 25,000 кадров/сек
Цветовое пространство : YUV
Субдискретизация насыщенности : 4:2:0
Битовая глубина : 8 бит
Тип развёртки : Прогрессивная
Бит/(Пиксели*Кадры) : 0.202
Размер потока : 678 Мбайт (89%)
Библиотека кодирования : x264 core 148 r2638 7599210
Настройки программы : cabac=1 / ref=14 / deblock=1:-2:-2 / analyse=0x3:0x133 / me=umh / subme=10 / psy=1 / psy_rd=1.05:0.12 / mixed_ref=1 / me_range=32 / chroma_me=1 / trellis=2 / 8x8dct=1 / cqm=0 / deadzone=21,11 / fast_pskip=0 / chroma_qp_offset=-3 / threads=12 / lookahead_threads=3 / sliced_threads=0 / nr=0 / decimate=0 / interlaced=0 / bluray_compat=0 / constrained_intra=0 / bframes=10 / b_pyramid=2 / b_adapt=2 / b_bias=0 / direct=3 / weightb=1 / open_gop=0 / weightp=2 / keyint=250 / keyint_min=25 / scenecut=40 / intra_refresh=0 / rc=2pass / mbtree=0 / bitrate=2000 / ratetol=1.0 / qcomp=0.63 / qpmin=0 / qpmax=39 / qpstep=4 / cplxblur=20.0 / qblur=0.5 / ip_ratio=1.40 / pb_ratio=1.30 / aq=1:1.00
Язык : English
Default : Да
Forced : Нет
Цветовой диапазон : Limited
Основные цвета : BT.601 PAL
Характеристики трансфера : BT.470 System B, BT.470 System G
Коэффициенты матрицы : BT.601
Аудио
Идентификатор : 2
Формат : AC-3
Формат/Информация : Audio Coding 3
Расширение режима : CM (complete main)
Параметр Endianness формата : Big
Идентификатор кодека : A_AC3
Продолжительность : 48 м.
Вид битрейта : Постоянный
Битрейт : 192 Кбит/сек
Каналы : 2 канала
Расположение каналов : Front: L R
Частота : 48,0 КГц
Метод сжатия : С потерями
Размер потока : 66,5 Мбайт (9%)
Язык : Russian
Default : Да
Forced : Нет

Релиз от:
Автор релиза:



   Похожие торренты   Торрент   Размер 
В этой теме нет новых непрочитанных сообщений. Конь белый [01-10 из 10] (1993) DVDRip

113 | 9

6.84 ГБ

В этой теме нет новых непрочитанных сообщений. Донцова Дарья - Белый конь на принце (2009) (2010) MP3

65 | 4

584.1 МБ

В этой теме нет новых непрочитанных сообщений. Три цвета: Белый / Trzy kolory: Bialy (1993) DVDRip

17 | 3

1.34 ГБ

В этой теме нет новых непрочитанных сообщений. Белый город (2006) DVDRip от ExKinoRay

53 | 7

1.37 ГБ

В этой теме нет новых непрочитанных сообщений. Скобелев. Белый генерал (2010) DVDRip от ExKinoRay

36 | 25

698.45 МБ

В этой теме нет новых непрочитанных сообщений. Белый бизон / Белый буйвол / The White Buffalo (1977) DVDRip от SuperTracer

6 | 4

1.37 ГБ

В этой теме нет новых непрочитанных сообщений. Белый охотник, черное сердце / White Hunter Black Heart (1990) DVDRip-AVC от ExKinoRay | P

46 | 10

2.54 ГБ




Вы не можете начинать темы
Вы не можете отвечать на сообщения
Вы не можете редактировать свои сообщения
Вы не можете удалять свои сообщения
Вы не можете добавлять вложения

Перейти:  
Для Мосгорсуда, Роскомнадзора и рекламодателей: mosgorsud-torrent[собачка]yandex.ru
 Вход
ppkBB3cker v.2 © 2008-2014 @ PPK
[ Time : 0.033s | 14 Queries | GZIP : Off ]

Торрент трекер RUTOR.IN, Не можете зайти на rutor.org? Какой новый адрес рутор? Какое зеркало рутор? Не работает rutor.org и зеркала? Тогда наш торрент специально для вас. Rutor.in неофициальное зеркало rutor. В случае если у Вас заблокирован rutor или вдруг Вы не можете на него зайти, то Вы без труда сможете скачать бесплатно и без рекламы последние новинки кино, игр, сериалов и прочего у нас, на Rutor.in. Не нужно использовать прокси, чтобы зайти на рутор, достаточно воспользоваться нашим ресурсом. Все новые фильмы, игры, сериалы, книги и музыка за 2013 и 2014 годы через торрент бесплатно. Скачивайте фильмы в хорошем качестве, игры для пк, xbox, playstation без регистрации. У нас вы найдете новые Зарубежные сериалы и Русские сериалы 2013, 2014, 2015 годов. Оставайтесь с нами, качайте любимые фильмы, игры, сериалы, книги и музыку.