img image001 image001 image001 image001 image001 image001 image001 image001 image001 image001 image001 image001 image001 image001 image001

Planets Sun Sun Sun
Статистика раздачи
Автор: Nickolas3434 | Размер: 1.87 ГБ | Добавлен: 06 июн 2016
Раздают: 22    Качают: 15
Скачать торрент
Скачать торрент
Описание торрента

СообщениеДобавлено: 06 июн 2016 


Информация о фильме
Название: Куку
Оригинальное название: Cuckoo
Год выхода: 2016
Жанр: комедия
Режиссер: Бен Тэйлор, Пол Мерфи, Paul Murphy
В ролях: Тейлор Лотнер, Грег Дэвис, Хелен Бексендейл, Тайгер Дрю-Хани, Кеннет Коллар, Селина Гриффитс, Тамла Кари, Холли Эрл, Эстер Смит
О фильме:
После отдыха в Таиланде хорошая девочка Рэйчел помимо приятных впечатлений привезла домой в Британию мужа. Высшее существо по имени Куку — гения, писателя, мыслителя, который не признает материальных ценностей, не приемлет работу, не встает раньше полудня, но зато любит Рэйчел, картошечку в мундире, и своих тестя и тёщу.

Страна: Великобритания
Студия: Roughcut Television
Продолжительность: ~00:25:00 серия
Перевод: Любительский двухголосый [HamsterStudio]
Файл
Кодек: XviD
Качество: HDTVRip
Видео: 720x400, 1204 Kbps, 25.000 fps
Звук: MP3, 128 кб/с (2 ch)
General
Complete name : /home/roma/Відео/Куку (Cuckoo)/Cuckoo.s03e01.HDTVRip.HamsterStudio.avi
Format : AVI
Format/Info : Audio Video Interleave
File size : 251 MiB
Duration : 26mn 8s
Overall bit rate : 1 342 Kbps
Writing application : VirtualDubModRus 1.5.10.2 (build 2540/release)
Writing library : VirtualDubMod build 2540/release
Video
ID : 0
Format : MPEG-4 Visual
Format profile : Advanced Simple@L5
Format settings, BVOP : 1
Format settings, QPel : No
Format settings, GMC : No warppoints
Format settings, Matrix : Default (H.263)
Codec ID : XVID
Codec ID/Hint : XviD
Duration : 26mn 8s
Bit rate : 1 204 Kbps
Width : 720 pixels
Height : 400 pixels
Display aspect ratio : 16:9
Frame rate : 25.000 fps
Color space : YUV
Chroma subsampling : 4:2:0
Bit depth : 8 bits
Scan type : Progressive
Compression mode : Lossy
Bits/(Pixel*Frame) : 0.167
Stream size : 225 MiB (90%)
Writing library : XviD 1.2.1 (UTC 2008-12-04)
Audio
ID : 1
Format : MPEG Audio
Format version : Version 1
Format profile : Layer 3
Mode : Joint stereo
Mode extension : MS Stereo
Codec ID : 55
Codec ID/Hint : MP3
Duration : 26mn 8s
Bit rate mode : Constant
Bit rate : 128 Kbps
Channel(s) : 2 channels
Sampling rate : 48.0 KHz
Compression mode : Lossy
Stream size : 23.9 MiB (10%)
Alignment : Aligned on interleaves
Interleave, duration : 40 ms (1.00 video frame)
Interleave, preload duration : 504 ms

Семпл

Релиз от: HamsterStudio



   Похожие торренты   Торрент   Размер 
В этой теме нет новых непрочитанных сообщений. Куку / Cuckoo [03x01-04 из 06] (2016) HDTVRip от HamsterStudio | L2

4 | 1

1004.64 МБ

В этой теме нет новых непрочитанных сообщений. Куку / Cuckoo [03x01-03 из 06] (2016) HDTVRip от HamsterStudio | L2

45 | 0

753.69 МБ

В этой теме нет новых непрочитанных сообщений. Куку / Cuckoo [03x01-05 из 06] (2016) HDTVRip от HamsterStudio | L2

24 | 10

1.23 ГБ

В этой теме нет новых непрочитанных сообщений. Куку / Cuckoo [03x01 из 06] (2016) HDTVRip от HamsterStudio | L2

10 | 3

250.85 МБ

В этой теме нет новых непрочитанных сообщений. Куку / Cuckoo [03x01-06 из 07] (2016) HDTVRip от HamsterStudio | L2

44 | 5

1.47 ГБ

В этой теме нет новых непрочитанных сообщений. Куку / Cuckoo [03x01-02 из 06] (2016) HDTVRip от HamsterStudio | L2

6 | 3

502.03 МБ

В этой теме нет новых непрочитанных сообщений. Куку / Cuckoo [01-06 из 06] (2012) HDTVRip

2 | 132

1.49 ГБ




Вы не можете начинать темы
Вы не можете отвечать на сообщения
Вы не можете редактировать свои сообщения
Вы не можете удалять свои сообщения
Вы не можете добавлять вложения

Перейти:  
Для Мосгорсуда, Роскомнадзора и рекламодателей: mosgorsud-torrent[собачка]yandex.ru
 Вход
ppkBB3cker v.2 © 2008-2014 @ PPK
[ Time : 0.040s | 15 Queries | GZIP : Off ]

Торрент трекер RUTOR.IN, Не можете зайти на rutor.org? Какой новый адрес рутор? Какое зеркало рутор? Не работает rutor.org и зеркала? Тогда наш торрент специально для вас. Rutor.in неофициальное зеркало rutor. В случае если у Вас заблокирован rutor или вдруг Вы не можете на него зайти, то Вы без труда сможете скачать бесплатно и без рекламы последние новинки кино, игр, сериалов и прочего у нас, на Rutor.in. Не нужно использовать прокси, чтобы зайти на рутор, достаточно воспользоваться нашим ресурсом. Все новые фильмы, игры, сериалы, книги и музыка за 2013 и 2014 годы через торрент бесплатно. Скачивайте фильмы в хорошем качестве, игры для пк, xbox, playstation без регистрации. У нас вы найдете новые Зарубежные сериалы и Русские сериалы 2013, 2014, 2015 годов. Оставайтесь с нами, качайте любимые фильмы, игры, сериалы, книги и музыку.
cron