img image001 image001 image001 image001 image001 image001 image001 image001 image001 image001 image001 image001 image001 image001 image001

Planets Sun Sun Sun
Статистика раздачи
Автор: Nickolas3434 | Размер: 8.56 ГБ | Добавлен: 06 июн 2016
Раздают: 50    Качают: 37
Скачать торрент
Скачать торрент
Описание торрента

СообщениеДобавлено: 06 июн 2016 


Информация о фильме
Название: Готэм
Оригинальное название: Gotham
Год выхода: 2015
Жанр: Триллер, драма, криминал
Режиссер: Дэнни Кэннон
В ролях: Бенжамин МакКензи, Шон Пертуи, Робин Тэйлор, Забрина Гевара, Эрин Ричардс, Донал Лог, Джада Пинкетт Смит, Дэвид Мазоуз, Камрен Бикондова, Кори Майкл Смит
О фильме:
Новый сотрудник департамента полиции Готэма, детектив Джеймс Гордон и его напарник Харви Буллок назначаются начальником отдела полиции Готэма по расследованию убийств Сарой Эссен на самое громкое дело последних лет - убийство Томаса и Марты Уэйн. Во время расследования Гордон знакомится с сыном убитых - Брюсом Уэйном, который после смерти родителей находится под опекой своего дворецкого Альфреда. Одновременно с расследованием убийства Гордону приходится бороться с местным главарем банды Фиш Муни, а также с будущими злодеями Готэма: Селиной Кайл и Освальдом Кобблпотом. В итоге, Гордон фокусируется на дружбе с молодым Брюсом, чтобы в будущем сделать из маленького мальчика Тёмного рыцаря - защитника Готэма.

Сезон 1
01. Пилот / Pilot
02. Селина Кайл / Selina Kyle
03. Шародув / The Balloonman
04. Аркам / Arkham
05. Гадюка / Viper
06. Дух Козла / Spirit of the Goat
07. Зонтик Пингвина / Penguin's Umbrella
08. Маска / The Mask
09. Харви Дент / Harvey Dent
10. Ловкрафт / LoveCraft
11. Галерея бандитов / Rogues Gallery
12. Что птичка ему напела / What the Little Bird Told Him
13. С возвращением, Джим Гордон / Welcome Back, Jim Gordon
14. Ужасный доктор Крейн / The Fearsome Dr. Crane
15. Пугало / The Scarecrow
16. Слепой предсказатель / The Blind Fortune Teller
17. Красный Колпак / Red Hood
18. Каждому свой Кобблпот / Everyone Has a Cobblepot
19. Хищные Птицы / Beasts of Prey
20. Под нож / Under the Knife
21. Между молотом и наковальней / The Anvil or the Hammer
22. Все счастливые семьи похожи / All Happy Families Are Alike
Сезон 2
01. Всё равно, всё едино / Damned If You Do
02. Тук-тук / Knock, Knock
03. Кто смеётся последним / The Last Laugh
04. Ударная группа / Strike Force
05. Шрамирование / Scarification
06. В огне / By Fire
07. Мамочкино чудовище / Mommy's Little Monster
08. Это случится сегодня / Tonight's the Night
09. Горькая пилюля / A Bitter Pill to Swallow
10. Сын Готэма / The Son of Gotham
11. Хуже преступления / Worse Than a Crime
12. Мистер Фриз / Mr. Freeze
13. Труп мороза не боится / A Dead Man Feels No Cold
14. Клубок зла и грязи / This Ball of Mud and Meanness
15. Безумный серый рассвет / Mad Grey Dawn
16. Узники / Prisoners
17. Чем дальше в лес / Into the Woods
18. Сосновые фермы / Pinewood
19. Азраил / Azrael
20. Освобождённый / Unleashed
21. Легион ужасных / A Legion of Horribles
22. Перевод / Transference

Страна: США
Студия: Primrose Hill Productions, DC Comics, Warner Bros. Television
Продолжительность: 44 x ~ 00:44:00
Перевод: Профессиональный (многоголосый, закадровый) [NewStudio]
Файл
Формат: MP4
Качество: HDRIP, WEB-DLRip | КПК
Видео: MPEG-4 AVC (x264), 640x360, ~500 kbps, 23.976 fps
Аудио: AAC LC, 48.0 KHz, 2 ch, 128 Kbps
Субтитры: Нет
Семпл

Complete name : E:KinoGotem.AVC.KPK.GFGotem.S01.2014-2015.AVC.HDRip.KPK.NS.GFGotem.s01e12.2015.AVC.HDRip.KPK.NS.GF.mp4
Format : MPEG-4
Codec ID : M4V (isom/iso2/avc1)
File size : 199 MiB
Duration : 44mn 0s
Overall bit rate mode : Variable
Overall bit rate : 633 Kbps
Writing application : Lavf53.19.0
Video
ID : 1
Format : AVC
Format/Info : Advanced Video Codec
Format profile : High@L4.1
Format settings, CABAC : Yes
Format settings, ReFrames : 8 frames
Codec ID : avc1
Codec ID/Info : Advanced Video Coding
Duration : 43mn 59s
Source duration : 15mn 21s
Bit rate : 500 Kbps
Width : 640 pixels
Height : 360 pixels
Display aspect ratio : 16:9
Frame rate mode : Constant
Frame rate : 23.976 fps
Color space : YUV
Chroma subsampling : 4:2:0
Bit depth : 8 bits
Scan type : Progressive
Bits/(Pixel*Frame) : 0.091
Stream size : 157 MiB (79%)
Source stream size : 157 MiB (79%)
Writing library : x264 core 146 r2538 121396c
Encoding settings : cabac=1 / ref=8 / deblock=1:-2:-2 / analyse=0x3:0x133 / me=umh / subme=10 / psy=1 / psy_rd=1.00:0.00 / mixed_ref=1 / me_range=24 / chroma_me=1 / trellis=2 / 8x8dct=1 / cqm=0 / deadzone=21,11 / fast_pskip=1 / chroma_qp_offset=-2 / threads=12 / lookahead_threads=2 / sliced_threads=0 / nr=0 / decimate=0 / interlaced=0 / bluray_compat=0 / constrained_intra=0 / bframes=8 / b_pyramid=2 / b_adapt=2 / b_bias=0 / direct=3 / weightb=1 / open_gop=0 / weightp=2 / keyint=240 / keyint_min=121 / scenecut=40 / intra_refresh=0 / rc_lookahead=40 / rc=2pass / mbtree=1 / bitrate=500 / ratetol=1.0 / qcomp=0.60 / qpmin=0 / qpmax=69 / qpstep=4 / cplxblur=20.0 / qblur=0.5 / ip_ratio=1.40 / aq=1:1.00
Menus : 3
mdhd_Duration : 2639641
Audio
ID : 2
Format : AAC
Format/Info : Advanced Audio Codec
Format profile : LC
Codec ID : 40
Duration : 44mn 0s
Bit rate mode : Variable
Bit rate : 128 Kbps
Channel(s) : 2 channels
Channel positions : Front: L R
Sampling rate : 48.0 KHz
Frame rate : 46.875 fps (1024 spf)
Compression mode : Lossy
Stream size : 40.2 MiB (20%)
Default : Yes
Alternate group : 1
Menus : 3

Релиз от:



   Похожие торренты   Торрент   Размер 
В этой теме нет новых непрочитанных сообщений. Готэм / Gotham [S01-02] (2014-2016) WEB-DLRip | NewStudio

34 | 54

23.92 ГБ

В этой теме нет новых непрочитанных сообщений. Готэм / Gotham [03x01 из 22] (2016) WEB-DLRip | NewStudio

31 | 0

550.33 МБ

В этой теме нет новых непрочитанных сообщений. Готэм / Gotham [03x01 из 22] (2016) WEB-DLRip от Kaztorrents | КПК | NewStudio

5 | 0

230.95 МБ

В этой теме нет новых непрочитанных сообщений. Готэм / Gotham [01x01-08 из 16] (2014) WEB-DLRip-AVC | NewStudio

21 | 43

7.02 ГБ

В этой теме нет новых непрочитанных сообщений. Готэм / Gotham [01x01-05 из 16] (2014) WEB-DLRip-AVC | NewStudio

41 | 76

4.39 ГБ

В этой теме нет новых непрочитанных сообщений. Готэм / Gotham [01x01 из 16] (2014) WEB-DLRip-AVC | NewStudio

258 | 7

899.07 МБ

В этой теме нет новых непрочитанных сообщений. Готэм / Gotham [01x01-02 из 16] (2014) WEB-DLRip-AVC | NewStudio

24 | 33

1.76 ГБ




Вы не можете начинать темы
Вы не можете отвечать на сообщения
Вы не можете редактировать свои сообщения
Вы не можете удалять свои сообщения
Вы не можете добавлять вложения

Перейти:  
Для Мосгорсуда, Роскомнадзора и рекламодателей: mosgorsud-torrent[собачка]yandex.ru
 Вход
ppkBB3cker v.2 © 2008-2014 @ PPK
[ Time : 0.050s | 14 Queries | GZIP : Off ]

Торрент трекер RUTOR.IN, Не можете зайти на rutor.org? Какой новый адрес рутор? Какое зеркало рутор? Не работает rutor.org и зеркала? Тогда наш торрент специально для вас. Rutor.in неофициальное зеркало rutor. В случае если у Вас заблокирован rutor или вдруг Вы не можете на него зайти, то Вы без труда сможете скачать бесплатно и без рекламы последние новинки кино, игр, сериалов и прочего у нас, на Rutor.in. Не нужно использовать прокси, чтобы зайти на рутор, достаточно воспользоваться нашим ресурсом. Все новые фильмы, игры, сериалы, книги и музыка за 2013 и 2014 годы через торрент бесплатно. Скачивайте фильмы в хорошем качестве, игры для пк, xbox, playstation без регистрации. У нас вы найдете новые Зарубежные сериалы и Русские сериалы 2013, 2014, 2015 годов. Оставайтесь с нами, качайте любимые фильмы, игры, сериалы, книги и музыку.