img image001 image001 image001 image001 image001 image001 image001 image001 image001 image001 image001 image001 image001 image001 image001

Planets Sun Sun Sun
Статистика раздачи
Автор: Nickolas3434 | Размер: 5.68 ГБ | Добавлен: 08 июн 2016
Раздают: 166    Качают: 329
Скачать торрент
Скачать торрент
Описание торрента

СообщениеДобавлено: 08 июн 2016 


Информация о фильме
Название: Проповедник
Оригинальное название: Preacher
Год выхода: 2016
Жанр: Фантастика, драма, экранизация комикса, комеди
Режиссер: Эван Голдберг, Сет Роген, Майкл Словис
В ролях: Доминик Купер, Том Брук, У. Эрл Браун, Йен Коллетти, Джозеф Гилган, Люси Гриффитс, Джеки Эрл Хейли, Рут Негга, Дерек Уилсон, Один Квинкэннон и другие
Описание: Проповедник Джесси Кастер по воле случая стал носителем внутри своего естества странного существа по имени Генезис. Это дитя совокупления ангела и демона представляет собой одновременно чистый идеал и квинтэссенцию света, но также сгусток абсолютного зла. Генезис — единственное существо во Вселенной, которое может встать вровень с Богом, если того пожелает, а его носитель автоматически становится самым могущественным существом в материальном мире. И это проповедник Кастер.

Страна: США
Продолжительность: ~00:45:00, первая серия 01:05:00
Перевод: Профессиональный (многоголосый закадровый) студия Jaskier
Файл
Кодек: AVC
Качество: WEB-DL 1080p, 2 серия: HDTV 1080p
Видео: 1916x1076 (16:9), 23.976 fps, ~4928 kbps, ~0.101 bit/pixel, HDTV: 1916x1080 (16:9), 23.976 fps, ~8000 kbps, ~0.167 bit/pixel
Звук:
Аудио 1 (русская дорожка): AC3, 48 kHz, 2 ch, 192 kbps
Аудио 2 (оригинал): AC3, 48 kHz, 6 ch, 384 kbps
Присутствует аудиореклама
Семпл


General
Unique ID : 241129508602879427061622727511735447217 (0xB567DAA6E9545C658D9BAF4EF78EAEB1)
Complete name : Z:HDPreacher. Season 1 (WEB-DL l 1080p l Jaskier)Preacher.S01E02.1080p.HDTVRip.DD5.1.H264-JASKiER.mkv
Format : Matroska
Format version : Version 1
File size : 3.11 GiB
Duration : 49mn 5s
Overall bit rate : 9 070 Kbps
Encoded date : UTC 2016-06-06 22:33:39
Writing application : mkvmerge v2.3.0 ('Freak U') built on Sep 8 2008 18:32:16
Writing library : libebml v0.7.7 + libmatroska v0.8.1
DURATION : 00:49:05.376000000
NUMBER_OF_FRAMES : 92043
NUMBER_OF_BYTES : 141378048
_STATISTICS_WRITING_APP : mkvmerge v8.4.0 ('A better way to fly') 64bit
_STATISTICS_WRITING_DATE_UTC : 2016-06-06 11:16:21
_STATISTICS_TAGS : BPS DURATION NUMBER_OF_FRAMES NUMBER_OF_BYTES
Video
ID : 1
Format : AVC
Format/Info : Advanced Video Codec
Format profile : High@L4.1
Format settings, CABAC : Yes
Format settings, ReFrames : 4 frames
Codec ID : V_MPEG4/ISO/AVC
Duration : 49mn 5s
Bit rate : 8 313 Kbps
Width : 1 920 pixels
Height : 1 080 pixels
Display aspect ratio : 16:9
Frame rate : 23.976 fps
Color space : YUV
Chroma subsampling : 4:2:0
Bit depth : 8 bits
Scan type : Progressive
Bits/(Pixel*Frame) : 0.167
Stream size : 2.85 GiB (92%)
Writing library : x264 core 148 r2665 a01e339
Encoding settings : cabac=1 / ref=4 / deblock=1:-3:-3 / analyse=0x3:0x133 / me=umh / subme=11 / psy=1 / psy_rd=1.00:0.00 / mixed_ref=1 / me_range=32 / chroma_me=1 / trellis=2 / 8x8dct=1 / cqm=0 / deadzone=21,11 / fast_pskip=0 / chroma_qp_offset=-2 / threads=20 / lookahead_threads=2 / sliced_threads=0 / nr=0 / decimate=1 / interlaced=0 / bluray_compat=0 / constrained_intra=0 / bframes=5 / b_pyramid=2 / b_adapt=2 / b_bias=0 / direct=3 / weightb=1 / open_gop=0 / weightp=2 / keyint=250 / keyint_min=23 / scenecut=40 / intra_refresh=0 / rc_lookahead=60 / rc=crf / mbtree=1 / crf=17.0 / qcomp=0.60 / qpmin=0 / qpmax=69 / qpstep=4 / ip_ratio=1.40 / aq=1:1.00
Language : English
Default : Yes
Forced : No
DURATION : 00:49:05.359000000
NUMBER_OF_FRAMES : 70618
NUMBER_OF_BYTES : 3125896598
_STATISTICS_WRITING_APP : mkvmerge v8.4.0 ('A better way to fly') 64bit
_STATISTICS_WRITING_DATE_UTC : 2016-06-06 11:16:21
_STATISTICS_TAGS : BPS DURATION NUMBER_OF_FRAMES NUMBER_OF_BYTES
Matrix coefficients : BT.709-5, BT.1361, IEC 61966-2-4 709, SMPTE RP177
Audio #1
ID : 2
Format : AC-3
Format/Info : Audio Coding 3
Mode extension : CM (complete main)
Format settings, Endianness : Big
Codec ID : A_AC3
Duration : 49mn 5s
Bit rate mode : Constant
Bit rate : 192 Kbps
Channel(s) : 2 channels
Channel positions : Front: L R
Sampling rate : 48.0 KHz
Bit depth : 16 bits
Compression mode : Lossy
Stream size : 67.4 MiB (2%)
Language : Russian
Default : Yes
Forced : No
Audio #2
ID : 3
Format : AC-3
Format/Info : Audio Coding 3
Mode extension : CM (complete main)
Format settings, Endianness : Big
Codec ID : A_AC3
Duration : 49mn 5s
Bit rate mode : Constant
Bit rate : 384 Kbps
Channel(s) : 6 channels
Channel positions : Front: L C R, Side: L R, LFE
Sampling rate : 48.0 KHz
Bit depth : 16 bits
Compression mode : Lossy
Delay relative to video : 96ms
Stream size : 135 MiB (4%)
Language : English
Default : No
Forced : No



   Похожие торренты   Торрент   Размер 
В этой теме нет новых непрочитанных сообщений. Проповедник / Preacher [01х01 из 10] (2016) WEB-DL 1080p | Jaskier

802 | 128

2.57 ГБ

В этой теме нет новых непрочитанных сообщений. Проповедник / Preacher [01х01 из 10] (2016) WEB-DLRip | Jaskier

567 | 32

866.58 МБ

В этой теме нет новых непрочитанных сообщений. Проповедник / Preacher [01х01 из 10] (2016) WEB-DLRip | Jaskier

128 | 4

800.22 МБ

В этой теме нет новых непрочитанных сообщений. Проповедник / Preacher [01х01-03 из 10] (2016) WEB-DLRip-AVC | Jaskier, NewStudio

19 | 33

2.14 ГБ

В этой теме нет новых непрочитанных сообщений. Проповедник / Preacher [01х01 из 10] (2016) WEB-DL 1080p | NewStudio

153 | 6

2.65 ГБ

В этой теме нет новых непрочитанных сообщений. Проповедник / Preacher [01х01 из 10] (2016) WEB-DL 1080p | LostFilm

80 | 1

2.65 ГБ

В этой теме нет новых непрочитанных сообщений. Проповедник / Preacher [01х01 из 10] (2016) WEB-DLRip | КПК | LostFilm

42 | 2

294.31 МБ




Вы не можете начинать темы
Вы не можете отвечать на сообщения
Вы не можете редактировать свои сообщения
Вы не можете удалять свои сообщения
Вы не можете добавлять вложения

Перейти:  
Для Мосгорсуда, Роскомнадзора и рекламодателей: mosgorsud-torrent[собачка]yandex.ru
 Вход
ppkBB3cker v.2 © 2008-2014 @ PPK
[ Time : 0.045s | 17 Queries | GZIP : Off ]

Торрент трекер RUTOR.IN, Не можете зайти на rutor.org? Какой новый адрес рутор? Какое зеркало рутор? Не работает rutor.org и зеркала? Тогда наш торрент специально для вас. Rutor.in неофициальное зеркало rutor. В случае если у Вас заблокирован rutor или вдруг Вы не можете на него зайти, то Вы без труда сможете скачать бесплатно и без рекламы последние новинки кино, игр, сериалов и прочего у нас, на Rutor.in. Не нужно использовать прокси, чтобы зайти на рутор, достаточно воспользоваться нашим ресурсом. Все новые фильмы, игры, сериалы, книги и музыка за 2013 и 2014 годы через торрент бесплатно. Скачивайте фильмы в хорошем качестве, игры для пк, xbox, playstation без регистрации. У нас вы найдете новые Зарубежные сериалы и Русские сериалы 2013, 2014, 2015 годов. Оставайтесь с нами, качайте любимые фильмы, игры, сериалы, книги и музыку.