img image001 image001 image001 image001 image001 image001 image001 image001 image001 image001 image001 image001 image001 image001 image001

Planets Sun Sun Sun
Статистика раздачи
Автор: Nickolas3434 | Размер: 7.68 ГБ | Добавлен: 11 июн 2016
Раздают: 24    Качают: 1
Скачать торрент
Скачать торрент
Описание торрента

СообщениеДобавлено: 11 июн 2016 


Информация о фильме
Название: Зал ожидания
Год выхода: 1998
Жанр: Мелодрама
Режиссер: Дмитрий Астрахан
В ролях: Михаил Боярский, Вера Глаголева, Ольга Понизова, Вячеслав Тихонов, Михаил Ульянов, Нина Усатова, Николай Ерёменко ст., Андрей Соколов, Игорь Костолевский, Геннадий Свирь, Ольга Сутулова, Иннокентий Сичкарь, Алексей Скворцов, Инна Алексеева, Андрей Ровба, Илона Шевнина, Людмила Вагнер, Евгения Глушенко, Анатолий Сливников, Лидия Мордачёва, Марк Горонок, Михаил Вассербаум, Любовь Румянцева, Михаил Петров, Олег Корчиков, Евгений Пименов, Владимир Корпусь, Павел Быков, Геннадий Овсянников
О фильме:
Маленький захолустный городок Зареченск. Нищета, разруха, пьянство. Однажды холодным ноябрьским вечером на вокзале останавливается поезд, которым возвращаются в Москву из приморского города с кинофестиваля столичные кинозвезды. Среди пассажиров миллиардерша, банкир, спортсмен и кинорежиссер со съемочной группой. Весь город во главе с мэром отправляется посмотреть на знаменитостей. Ни жители Зареченска, ни проезжие звезды не могут предположить, что придет сообщение о том, что магистраль заминирована, и волею случая вместо двух положенных по расписанию минут "веселый" поезд проведет в провинции несколько дней. Эти дни изменят жизнь городка, который станет местом съемок будущего фильма, и судьбы пассажиров...
Страна: Россия, Беларусь, Беларусьфильм
Продолжительность: 10 x ~ 00:52:20
Перевод: не требуется
Файл
Кодек: x264
Качество: DVDRip-AVC
Видео: MPEG-4 AVC, ~ 1900 Кбит/с, 700x500@746x500
Звук: AC3, 2 ch, 192 Кбит/с

raw [info]: 700x500p 16:15 @ 25/1 fps (cfr)
x264 [info]: using SAR=16/15
x264 [info]: using cpu capabilities: MMX2 SSE2Fast SSSE3 SSE4.2 AVX
x264 [info]: profile High, level 4.1
x264 [info]: frame I:413 Avg QP:16.02 size: 62234
x264 [info]: frame P:16096 Avg QP:19.43 size: 23604
x264 [info]: frame B:60192 Avg QP:20.72 size: 5366
====================================================
Общее
Уникальный идентификатор : 192459951168706531158949687288305272155 (0x90CA7034C3887686B81CD34CB2BBC55B)
Полное имя : R:МОИ РИПЫЗал ожидания_1998-DVDRip-AVCЗал ожидания-2.mkv
Формат : Matroska
Версия формата : Version 2
Размер файла : 800 Мбайт
Продолжительность : 53 м.
Общий поток : 2094 Кбит/сек
Дата кодирования : UTC 2016-06-08 14:52:24
Программа кодирования : mkvmerge v5.8.0 ('No Sleep / Pillow') built on Sep 2 2012 15:37:04
Библиотека кодирования : libebml v1.2.3 + libmatroska v1.3.0
Видео
Идентификатор : 1
Формат : AVC
Формат/Информация : Advanced Video Codec
Профиль формата : High@L4.1
Параметр CABAC формата : Да
Параметр ReFrames формата : 14 кадров
Идентификатор кодека : V_MPEG4/ISO/AVC
Продолжительность : 53 м.
Битрейт : 1900 Кбит/сек
Ширина : 700 пикселей
Высота : 500 пикселей
Соотношение сторон : 3:2
Соотношение сторон в оригинале : 3:2
Режим частоты кадров : Постоянный
Частота кадров : 25,000 кадров/сек
Цветовое пространство : YUV
Субдискретизация насыщенности : 4:2:0
Битовая глубина : 8 бит
Тип развёртки : Прогрессивная
Бит/(Пиксели*Кадры) : 0.217
Размер потока : 711 Мбайт (89%)
Библиотека кодирования : x264 core 148 r2638 7599210
Настройки программы : cabac=1 / ref=14 / deblock=1:-2:-2 / analyse=0x3:0x133 / me=umh / subme=10 / psy=1 / psy_rd=1.05:0.13 / mixed_ref=1 / me_range=32 / chroma_me=1 / trellis=2 / 8x8dct=1 / cqm=0 / deadzone=21,11 / fast_pskip=0 / chroma_qp_offset=-3 / threads=12 / lookahead_threads=2 / sliced_threads=0 / nr=0 / decimate=0 / interlaced=0 / bluray_compat=0 / constrained_intra=0 / bframes=9 / b_pyramid=2 / b_adapt=2 / b_bias=0 / direct=3 / weightb=1 / open_gop=0 / weightp=2 / keyint=250 / keyint_min=25 / scenecut=40 / intra_refresh=0 / rc=2pass / mbtree=0 / bitrate=1900 / ratetol=1.0 / qcomp=0.63 / qpmin=0 / qpmax=39 / qpstep=4 / cplxblur=20.0 / qblur=0.5 / ip_ratio=1.40 / pb_ratio=1.30 / aq=1:1.00
Язык : English
Default : Да
Forced : Нет
Цветовой диапазон : Limited
Основные цвета : BT.601 PAL
Характеристики трансфера : BT.470 System B, BT.470 System G
Коэффициенты матрицы : BT.601
Аудио
Идентификатор : 2
Формат : AC-3
Формат/Информация : Audio Coding 3
Расширение режима : CM (complete main)
Параметр Endianness формата : Big
Идентификатор кодека : A_AC3
Продолжительность : 53 м.
Вид битрейта : Постоянный
Битрейт : 192 Кбит/сек
Каналы : 2 канала
Расположение каналов : Front: L R
Частота : 48,0 КГц
Метод сжатия : С потерями
Размер потока : 73,4 Мбайт (9%)
Язык : Russian
Default : Да
Forced : Нет

Релиз от:
Автор релиза:



   Похожие торренты   Торрент   Размер 
В этой теме нет новых непрочитанных сообщений. Зал ожидания [10 серий из 10] (1998) DVDRip от Da Vinci

99 | 17

4.27 ГБ

В этой теме нет новых непрочитанных сообщений. Праздник ожидания праздника (1989) DVDRip

11 | 2

3.62 ГБ

В этой теме нет новых непрочитанных сообщений. Большие ожидания / The Greatest Expectations (2003) DVDRip | L1

18 | 5

1.29 ГБ

В этой теме нет новых непрочитанных сообщений. Остров фантазий (13 серий из 13) / Fantasy Island (1998) TVRip

8 | 13

7.82 ГБ

В этой теме нет новых непрочитанных сообщений. Дикий ангел / Muñeca brava [270 серий] (1998) SATRip

17 | 29

42.85 ГБ

В этой теме нет новых непрочитанных сообщений. Звездные бои насмерть / Celebrity Deathmatch [49 серий] (1998-2007) TVRip

6 | 6

7.94 ГБ

В этой теме нет новых непрочитанных сообщений. Дикий ангел / Muneca Brava [270 серий] (1998-1999) TVRip от wasya89

148 | 149

92.74 ГБ




Вы не можете начинать темы
Вы не можете отвечать на сообщения
Вы не можете редактировать свои сообщения
Вы не можете удалять свои сообщения
Вы не можете добавлять вложения

Перейти:  
Для Мосгорсуда, Роскомнадзора и рекламодателей: mosgorsud-torrent[собачка]yandex.ru
 Вход
ppkBB3cker v.2 © 2008-2014 @ PPK
[ Time : 0.059s | 15 Queries | GZIP : Off ]

Торрент трекер RUTOR.IN, Не можете зайти на rutor.org? Какой новый адрес рутор? Какое зеркало рутор? Не работает rutor.org и зеркала? Тогда наш торрент специально для вас. Rutor.in неофициальное зеркало rutor. В случае если у Вас заблокирован rutor или вдруг Вы не можете на него зайти, то Вы без труда сможете скачать бесплатно и без рекламы последние новинки кино, игр, сериалов и прочего у нас, на Rutor.in. Не нужно использовать прокси, чтобы зайти на рутор, достаточно воспользоваться нашим ресурсом. Все новые фильмы, игры, сериалы, книги и музыка за 2013 и 2014 годы через торрент бесплатно. Скачивайте фильмы в хорошем качестве, игры для пк, xbox, playstation без регистрации. У нас вы найдете новые Зарубежные сериалы и Русские сериалы 2013, 2014, 2015 годов. Оставайтесь с нами, качайте любимые фильмы, игры, сериалы, книги и музыку.
cron