img image001 image001 image001 image001 image001 image001 image001 image001 image001 image001 image001 image001 image001 image001 image001

Planets Sun Sun Sun
Статистика раздачи
Автор: Nickolas3434 | Размер: 1.47 ГБ | Добавлен: 11 июн 2016
Раздают: 21    Качают: 0
Скачать торрент
Скачать торрент
Описание торрента

СообщениеДобавлено: 11 июн 2016 


Информация о фильме
Оригинальное название: ЧОП
Год выхода: 2016
Жанр: Ситком, комедия
Режиссер:Михаил Соловьёв
В ролях: Сергей Стёпин, Геннадий Масленников, Сергей Терещенко, Сэм Никель, Денис Бузин, Яна Кошкина, Дмитрий Белоцерковский, Али Алиев, Ислам Мамергов, Виталий Гумеров
О фильме:
Во втором сезоне комедийного сериала «ЧОП» самые смешные охранники страны продолжают блюсти порядок в бизнес-центре «Соловей», едят, а также, наконец, находят любовь. И она влияет на их работу так, что безопасность оказывается в опасности! Лев Борисович борется за сердце хозяйки бизнес-центра Елены Сергеевны и помогает центру в трудное время: сдает его в аренду знакомым индусам — лишь бы угодить любимой. Андрей устраивает Снежану на работу в ЧОП «Кедр» и даже отдает ей часть своей зарплаты — только бы быть к ней поближе. Федя, никогда не интересовавшийся современными технологиями,находит любовь в лице айтишницы Маши. Даже Толя, которого жена выгнала из дома, оказывается втянут в любовный треугольник. Герои сериала продолжают впутываться в самые невероятные истории: их ждёт падение лифта, похищение, поиски фиолетовой шубы, арест, похороны собаки, охота на крысу - и многое другое.
Страна: Россия, "Good Stroy Media" для ОАО "ТНТ-Телесеть"
Продолжительность: ~ 00:24:00 / Серия
Перевод: Не требуется
Файл
Кодек: MPEG-4 AVC
Качество: WEB-DLRip (AVC)
Видео: MPEG-4 AVC, ~ 2000 Кбит/с, 1024x576
Звук: 48 kHz, AC3, 2 ch, ~ 192 kbps avg
Общее
Уникальный идентификатор : 204069638897018735948575123941831278162 (0x9986620118471EF28C0EB2EB545CFE52)
Полное имя : D:ВидеоCHOP.02 sezon. 2016.WEB-DLRip-AVC by Vovan366(ExKinoRay)CHOP. 02.s04.2016.WEBDLRip(AVC) by Vovan366(ExKinoRay).mkv
Формат : Matroska
Версия формата : Version 2
Размер файла : 373 Мбайт
Продолжительность : 23 м.
Общий поток : 2192 Кбит/сек
Дата кодирования : UTC 2016-06-10 14:52:25
Программа кодирования : mkvmerge v7.8.0 ('River Man') 32bit built on Apr 3 2015 12:11:22
Библиотека кодирования : libebml v1.3.1 + libmatroska v1.4.2
Видео
Идентификатор : 1
Формат : AVC
Формат/Информация : Advanced Video Codec
Профиль формата : High@L4.1
Параметр CABAC формата : Да
Параметр ReFrames формата : 10 кадров
Идентификатор кодека : V_MPEG4/ISO/AVC
Продолжительность : 23 м.
Битрейт : 2000 Кбит/сек
Ширина : 1024 пикселя
Высота : 576 пикселей
Соотношение сторон : 16:9
Режим частоты кадров : Постоянный
Частота кадров : 25,000 кадров/сек
Цветовое пространство : YUV
Субдискретизация насыщенности : 4:2:0
Битовая глубина : 8 бит
Тип развёртки : Прогрессивная
Бит/(Пиксели*Кадры) : 0.136
Размер потока : 333 Мбайт (89%)
Библиотека кодирования : x264 core 146 r2538 121396c
Настройки программы : cabac=1 / ref=10 / deblock=1:-1:-1 / analyse=0x3:0x113 / me=umh / subme=10 / psy=1 / psy_rd=1.00:0.10 / mixed_ref=1 / me_range=32 / chroma_me=1 / trellis=2 / 8x8dct=1 / cqm=0 / deadzone=21,11 / fast_pskip=1 / chroma_qp_offset=-3 / threads=6 / lookahead_threads=1 / sliced_threads=0 / nr=0 / decimate=0 / interlaced=0 / bluray_compat=0 / constrained_intra=0 / bframes=8 / b_pyramid=2 / b_adapt=2 / b_bias=0 / direct=3 / weightb=1 / open_gop=0 / weightp=2 / keyint=250 / keyint_min=25 / scenecut=40 / intra_refresh=0 / rc=2pass / mbtree=0 / bitrate=2000 / ratetol=1.0 / qcomp=0.60 / qpmin=0 / qpmax=69 / qpstep=4 / cplxblur=20.0 / qblur=0.5 / ip_ratio=1.40 / pb_ratio=1.30 / aq=1:1.00
Default : Да
Forced : Нет
Аудио
Идентификатор : 2
Формат : AC-3
Формат/Информация : Audio Coding 3
Расширение режима : CM (complete main)
Параметр Endianness формата : Big
Идентификатор кодека : A_AC3
Продолжительность : 23 м.
Вид битрейта : Постоянный
Битрейт : 192 Кбит/сек
Каналы : 2 канала
Расположение каналов : Front: L R
Частота : 48,0 КГц
Битовая глубина : 16 бит
Метод сжатия : С потерями
Размер потока : 32,6 Мбайт (9%)
Default : Да
Forced : Нет




Релиз от:
Rip by: Vovan366



   Похожие торренты   Торрент   Размер 
В этой теме нет новых непрочитанных сообщений. Джокер 2. Операция Капкан [02x01 из 04] (2016) WEB-DLRip-AVC от ExKinoRay

1 | 6

671.83 МБ

В этой теме нет новых непрочитанных сообщений. Джокер / Операция Капкан [02x01-02 из 04] (2016) WEB-DLRip-AVC от ExKinoRay

5 | 0

1.29 ГБ

В этой теме нет новых непрочитанных сообщений. Джокер / Операция Капкан [02x01-03 из 04] (2016) WEB-DLRip-AVC от ExKinoRay

0 | 1

1.96 ГБ

В этой теме нет новых непрочитанных сообщений. Без свидетелей [02x01-35 из 45] (2015) WEB-DLRip от ExKinoRay

1 | 22

13.09 ГБ

В этой теме нет новых непрочитанных сообщений. Женщина в беде [02x01-04 из 04] (2015) WEB-DLRip-AVC от ExKinoRay

133 | 15

2.93 ГБ

В этой теме нет новых непрочитанных сообщений. Викинги / Vikings [02x01-09 из 10] (2014) WEB-DLRip-AVC от ExKinoRay | NewStudio

31 | 92

7.68 ГБ

В этой теме нет новых непрочитанных сообщений. Викинги / Vikings [02x01 из 10] (2014) WEB-DLRip-AVC от ExKinoRay | NewStudio

15 | 8

869.82 МБ




Вы не можете начинать темы
Вы не можете отвечать на сообщения
Вы не можете редактировать свои сообщения
Вы не можете удалять свои сообщения
Вы не можете добавлять вложения

Перейти:  
Для Мосгорсуда, Роскомнадзора и рекламодателей: mosgorsud-torrent[собачка]yandex.ru
 Вход
ppkBB3cker v.2 © 2008-2014 @ PPK
[ Time : 0.040s | 14 Queries | GZIP : Off ]

Торрент трекер RUTOR.IN, Не можете зайти на rutor.org? Какой новый адрес рутор? Какое зеркало рутор? Не работает rutor.org и зеркала? Тогда наш торрент специально для вас. Rutor.in неофициальное зеркало rutor. В случае если у Вас заблокирован rutor или вдруг Вы не можете на него зайти, то Вы без труда сможете скачать бесплатно и без рекламы последние новинки кино, игр, сериалов и прочего у нас, на Rutor.in. Не нужно использовать прокси, чтобы зайти на рутор, достаточно воспользоваться нашим ресурсом. Все новые фильмы, игры, сериалы, книги и музыка за 2013 и 2014 годы через торрент бесплатно. Скачивайте фильмы в хорошем качестве, игры для пк, xbox, playstation без регистрации. У нас вы найдете новые Зарубежные сериалы и Русские сериалы 2013, 2014, 2015 годов. Оставайтесь с нами, качайте любимые фильмы, игры, сериалы, книги и музыку.