img image001 image001 image001 image001 image001 image001 image001 image001 image001 image001 image001 image001 image001 image001 image001

Planets Sun Sun Sun
Статистика раздачи
Автор: Nickolas3434 | Размер: 501.38 МБ | Добавлен: 11 июн 2016
Раздают: 1    Качают: 0
Скачать торрент
Скачать торрент
Описание торрента

СообщениеДобавлено: 11 июн 2016 


Информация о фильме
Название: Подчинение
Оригинальное название: Submission
Год выхода: 2016
Жанр: драма, мелодрама, детектив
Режиссер: Джеки Ст. Джеймс
В ролях: Эшлинн Йенни, Джастин Берти, Скин Даймонд, Виктория Ливайн, Кевин Нельсон, Ника Хитрова, Брент Харви, Ричи Кэлхун, Сара Лав, Валери Бэйбер
О фильме:
Сексуальное пробуждение прекрасной, но неудовлетворенной Эшли наступает в тот момент, когда она находит популярный эротический роман «Рабыня» Нолана Китса. Ее увлечение таинственным автором заводит ее в сексуальный, но опасный любовный треугольник, где все не те, кем кажутся, и где фантазии сходят со страниц книг.

Страна: США
Студия: Plausible Films
Продолжительность: ~00:25:00 серия
Перевод: Любительский двухголосый [HamsterStudio]
Файл
Кодек: XviD
Качество: HDTVRip
Видео: 720x400, 1 268 Kbps, 23.976 (23976/1000) fps
Звук: MP3, 128 кб/с (2 ch)
Семпл

General
Complete name : /home/roma/Відео/Подчинение (Submission)/Submission.S01E01.HDTVRip.HamsterStudio.avi
Format : AVI
Format/Info : Audio Video Interleave
File size : 251 MiB
Duration : 24mn 56s
Overall bit rate : 1 405 Kbps
Writing application : VirtualDubModRus 1.5.10.2 (build 2540/release)
Writing library : VirtualDubMod build 2540/release
Video
ID : 0
Format : MPEG-4 Visual
Format profile : Advanced Simple@L5
Format settings, BVOP : 1
Format settings, QPel : No
Format settings, GMC : No warppoints
Format settings, Matrix : Default (H.263)
Codec ID : XVID
Codec ID/Hint : XviD
Duration : 24mn 56s
Bit rate : 1 268 Kbps
Width : 720 pixels
Height : 400 pixels
Display aspect ratio : 16:9
Frame rate : 23.976 (23976/1000) fps
Color space : YUV
Chroma subsampling : 4:2:0
Bit depth : 8 bits
Scan type : Progressive
Compression mode : Lossy
Bits/(Pixel*Frame) : 0.184
Stream size : 226 MiB (90%)
Writing library : XviD 1.2.1 (UTC 2008-12-04)
Audio
ID : 1
Format : MPEG Audio
Format version : Version 1
Format profile : Layer 3
Mode : Joint stereo
Mode extension : MS Stereo
Codec ID : 55
Codec ID/Hint : MP3
Duration : 24mn 56s
Bit rate mode : Constant
Bit rate : 128 Kbps
Channel(s) : 2 channels
Sampling rate : 48.0 KHz
Compression mode : Lossy
Stream size : 22.8 MiB (9%)
Alignment : Aligned on interleaves
Interleave, duration : 42 ms (1.00 video frame)
Interleave, preload duration : 504 ms
Когда раздача ведётся путём добавления новых серий, при каждом добавлении создётся новый торрент. Чтобы начать докачку новой серии, пользователям необходимо сделать следующее:
(1) остановить скачивание,
(2) удалить старый торрент у себя из клиента (старые серии удалять не надо),
(3) скачать новый торрент и запустить его у себя в клиенте вместо старого, при этом указать клиенту путь в старую папку, куда и должно происходить скачивание новых серий.
Ваш клиент при этом должен произвести хеширование (проверку) старой папки (если не производит сам - помогите ему сделать это), и будет докачивать только те серии, которых у вас ещё нет. Старые серии при этом не удаляются, а продолжают раздаваться!
Eсли вы уже удалили старые серии, то предотвратить повторную закачку старых серий можно, отжав галочку в соответсвующих местах при запуске нового торрента. По возможности, желательно не удалять старые серии как можно дольше, чтобы релизёр не столько продолжал раздавать старые серии, а смог сконцентрироваться на новых.

Релиз от: HamsterStudio



   Похожие торренты   Торрент   Размер 
В этой теме нет новых непрочитанных сообщений. Подчинение / Submission [S01] (2016) HDTVRip от HamsterStudio | L2

48 | 4

1.47 ГБ

В этой теме нет новых непрочитанных сообщений. Подчинение / Submission [01x01-04 из 06] (2016) HDTVRip 720p | BaibaKo

45 | 9

2.44 ГБ

В этой теме нет новых непрочитанных сообщений. Подчинение / Submission [S01] (2016) HDTVRip | Baibako

31 | 9

2.3 ГБ

В этой теме нет новых непрочитанных сообщений. Сожители / Crashing [01x01 из 06] (2016) HDTVRip от HamsterStudio | L2

53 | 5

214.03 МБ

В этой теме нет новых непрочитанных сообщений. Сожители / Crashing [01x01-05 из 06] (2016) HDTVRip от HamsterStudio | L2

43 | 11

1021.9 МБ

В этой теме нет новых непрочитанных сообщений. Цветы / Flowers [01x01-03 из 06] (2016) HDTVRip от HamsterStudio | L2

7 | 8

580.53 МБ

В этой теме нет новых непрочитанных сообщений. Всё кувырком / Crowded [01x01-08 из 13] (2016) HDTVRip от HamsterStudio | L2

32 | 23

1.65 ГБ




Вы не можете начинать темы
Вы не можете отвечать на сообщения
Вы не можете редактировать свои сообщения
Вы не можете удалять свои сообщения
Вы не можете добавлять вложения

Перейти:  
Для Мосгорсуда, Роскомнадзора и рекламодателей: mosgorsud-torrent[собачка]yandex.ru
 Вход
ppkBB3cker v.2 © 2008-2014 @ PPK
[ Time : 0.081s | 15 Queries | GZIP : Off ]

Торрент трекер RUTOR.IN, Не можете зайти на rutor.org? Какой новый адрес рутор? Какое зеркало рутор? Не работает rutor.org и зеркала? Тогда наш торрент специально для вас. Rutor.in неофициальное зеркало rutor. В случае если у Вас заблокирован rutor или вдруг Вы не можете на него зайти, то Вы без труда сможете скачать бесплатно и без рекламы последние новинки кино, игр, сериалов и прочего у нас, на Rutor.in. Не нужно использовать прокси, чтобы зайти на рутор, достаточно воспользоваться нашим ресурсом. Все новые фильмы, игры, сериалы, книги и музыка за 2013 и 2014 годы через торрент бесплатно. Скачивайте фильмы в хорошем качестве, игры для пк, xbox, playstation без регистрации. У нас вы найдете новые Зарубежные сериалы и Русские сериалы 2013, 2014, 2015 годов. Оставайтесь с нами, качайте любимые фильмы, игры, сериалы, книги и музыку.