img image001 image001 image001 image001 image001 image001 image001 image001 image001 image001 image001 image001 image001 image001 image001

Planets Sun Sun Sun
Статистика раздачи
Автор: Nickolas3434 | Размер: 190.47 МБ | Добавлен: 13 июн 2016
Раздают: 7    Качают: 0
Скачать торрент
Скачать торрент
Описание торрента

СообщениеДобавлено: 13 июн 2016 


Информация о фильме
Название: Правдоподобные истории Нила Геймана
Оригинальное название: Neil Gaiman's Likely Stories
Год выхода: 2016
Жанр: ужасы, драма
Режиссер: Ян Форсис, Джейн Поллард
В ролях: Моника Долан, Йохан Майерс, Кирк Лэйк, Монтсеррат Ломбард, Хлоя Хейуорд, Пол Риттер, Кеннет Крэнэм, Том Хьюз, Джордж МакКэй
О фильме:
Новая четырехсерийная адаптация рассказов известного британского писателя-фантаста и сценариста, автора графических романов и комиксов, Нила Геймана. Истории темные и странные, но наполненные человеческим теплом и остроумием, органично сочетая реальность и фантазию.

Страна: Великобритания
Студия: Sid Gentle Films
Продолжительность: ~00:23:00 серия
Перевод: Любительский двухголосый [HamsterStudio]
Файл
Кодек: XviD
Качество: PDTVRip
Видео: 720x300, 994 Kbps, 25.000 fps
Звук: MP3, 128 кб/с (2 ch)
Семпл
General
Complete name : /home/roma/Відео/Правдоподобные истории Нила Геймана (Neil Gaiman's Likely Stories)/Neil.Gaimans.Likely.Stories.S01E01.PDTVRip.HamsterStudio.avi
Format : AVI
Format/Info : Audio Video Interleave
File size : 190 MiB
Duration : 23mn 31s
Overall bit rate : 1 132 Kbps
Writing application : VirtualDubMod 1.5.10.2 (build 2540/release)
Writing library : VirtualDubMod build 2540/release
Video
ID : 0
Format : MPEG-4 Visual
Format profile : Advanced Simple@L5
Format settings, BVOP : 2
Format settings, QPel : No
Format settings, GMC : No warppoints
Format settings, Matrix : Default (H.263)
Muxing mode : Packed bitstream
Codec ID : XVID
Codec ID/Hint : XviD
Duration : 23mn 31s
Bit rate : 994 Kbps
Width : 720 pixels
Height : 300 pixels
Display aspect ratio : 2.40:1
Frame rate : 25.000 fps
Color space : YUV
Chroma subsampling : 4:2:0
Bit depth : 8 bits
Scan type : Progressive
Compression mode : Lossy
Bits/(Pixel*Frame) : 0.184
Stream size : 167 MiB (88%)
Writing library : XviD 66
Audio
ID : 1
Format : MPEG Audio
Format version : Version 1
Format profile : Layer 3
Mode : Joint stereo
Mode extension : MS Stereo
Codec ID : 55
Codec ID/Hint : MP3
Duration : 23mn 31s
Bit rate mode : Constant
Bit rate : 128 Kbps
Channel(s) : 2 channels
Sampling rate : 48.0 KHz
Compression mode : Lossy
Stream size : 21.5 MiB (11%)
Alignment : Aligned on interleaves
Interleave, duration : 40 ms (1.00 video frame)
Interleave, preload duration : 504 ms
Когда раздача ведётся путём добавления новых серий, при каждом добавлении создётся новый торрент. Чтобы начать докачку новой серии, пользователям необходимо сделать следующее:
(1) остановить скачивание,
(2) удалить старый торрент у себя из клиента (старые серии удалять не надо),
(3) скачать новый торрент и запустить его у себя в клиенте вместо старого, при этом указать клиенту путь в старую папку, куда и должно происходить скачивание новых серий.
Ваш клиент при этом должен произвести хеширование (проверку) старой папки (если не производит сам - помогите ему сделать это), и будет докачивать только те серии, которых у вас ещё нет. Старые серии при этом не удаляются, а продолжают раздаваться!
Eсли вы уже удалили старые серии, то предотвратить повторную закачку старых серий можно, отжав галочку в соответсвующих местах при запуске нового торрента. По возможности, желательно не удалять старые серии как можно дольше, чтобы релизёр не столько продолжал раздавать старые серии, а смог сконцентрироваться на новых.

Релиз от: HamsterStudio



   Похожие торренты   Торрент   Размер 
В этой теме нет новых непрочитанных сообщений. Веселые истории / Art stories (2010) PC

1 | 4

242.85 МБ

В этой теме нет новых непрочитанных сообщений. Кладбищенские истории / Deadtime Stories (2010) PC

2 | 1

159.59 МБ

В этой теме нет новых непрочитанных сообщений. Истории роботов / Robot Stories (2003) DVDRip | P

95 | 27

1.33 ГБ

В этой теме нет новых непрочитанных сообщений. Огнестрельные истории / Shotgun Stories (2007) DVDRip | SUB

1 | 1

697.01 МБ

В этой теме нет новых непрочитанных сообщений. Огнестрельные истории / Shotgun Stories (2007) DVDRip | L1

14 | 10

696.97 МБ

В этой теме нет новых непрочитанных сообщений. Истории на супер 8 / Super 8 Stories (2001) DVD5

2 | 3

4.29 ГБ

В этой теме нет новых непрочитанных сообщений. Истории на супер 8 / Super 8 Stories (2001) DVDRip

7 | 3

1.37 ГБ




Вы не можете начинать темы
Вы не можете отвечать на сообщения
Вы не можете редактировать свои сообщения
Вы не можете удалять свои сообщения
Вы не можете добавлять вложения

Перейти:  
Для Мосгорсуда, Роскомнадзора и рекламодателей: mosgorsud-torrent[собачка]yandex.ru
 Вход
ppkBB3cker v.2 © 2008-2014 @ PPK
[ Time : 0.036s | 14 Queries | GZIP : Off ]

Торрент трекер RUTOR.IN, Не можете зайти на rutor.org? Какой новый адрес рутор? Какое зеркало рутор? Не работает rutor.org и зеркала? Тогда наш торрент специально для вас. Rutor.in неофициальное зеркало rutor. В случае если у Вас заблокирован rutor или вдруг Вы не можете на него зайти, то Вы без труда сможете скачать бесплатно и без рекламы последние новинки кино, игр, сериалов и прочего у нас, на Rutor.in. Не нужно использовать прокси, чтобы зайти на рутор, достаточно воспользоваться нашим ресурсом. Все новые фильмы, игры, сериалы, книги и музыка за 2013 и 2014 годы через торрент бесплатно. Скачивайте фильмы в хорошем качестве, игры для пк, xbox, playstation без регистрации. У нас вы найдете новые Зарубежные сериалы и Русские сериалы 2013, 2014, 2015 годов. Оставайтесь с нами, качайте любимые фильмы, игры, сериалы, книги и музыку.