img image001 image001 image001 image001 image001 image001 image001 image001 image001 image001 image001 image001 image001 image001 image001

Planets Sun Sun Sun
Статистика раздачи
Автор: Nickolas3434 | Размер: 1.39 ГБ | Добавлен: 13 июн 2016
Раздают: 14    Качают: 2
Скачать торрент
Скачать торрент
Описание торрента

СообщениеДобавлено: 13 июн 2016 

Название: Нереальное шоу (Нереально)
Оригинальное название: UnReaL
Год выхода: 2016
Жанр: драма
Режиссер: Ута Бризвитц, Питер О’Фаллон, Лев Л. Спиро
В ролях: Шири Эпплби, Крэйг Бирко, Фредди Строма, Джеффри Бауэр-Чепман, Джоанна Э. Брэдди, Натали Келли, Джош Келли, Эшли Скотт и др.
О сериале: Настоящий хаос окружает съемки любовных реалити-шоу. За кулисами может оказаться всё гораздо интереснее, чем в эфире. В погоне за рейтингами приходится всячески манипулировать конкурсантами, чтобы те выдали необходимый «материал» для шоу. А продюсер может уволить кого угодно за малейший недочёт.
Страна: США
Студия: Wieden+Kennedy Entertainment
Продолжительность: ~ 00:45:00
Перевод: Любительский (двухголосый) Sunshine Studio
Субтитры: Отсутствуют
Реклама: Присутствует

Файл
Формат: MKV
Качество: HDTV 720р
Видео: MPEG-4 AVC, ~ 4000 Кбит/с, 1280x720
Аудио: 48 kHz, AC3 Dolby Digital, 2/0 (L,R) ch, ~192 kbps

Формат : Matroska
Версия формата : Version 2
Размер файла : 1,39 Гбайт
Продолжительность : 42 м.
Общий поток : 4615 Кбит/сек
Дата кодирования : UTC 2016-06-11 14:57:46
Программа кодирования : mkvmerge v4.9.1 ('Ich will') сборка от Jul 11 2011 23:53:15
Библиотека кодирования : libebml v1.2.1 + libmatroska v1.1.1 / Lavf55.37.101
Видео
Идентификатор : 1
Формат : AVC
Формат/Информация : Advanced Video Codec
Профиль формата : Main@L3.1
Параметр CABAC формата : Да
Параметр ReFrames формата : 4 кадра
Режим смешивания : Header stripping
Идентификатор кодека : V_MPEG4/ISO/AVC
Продолжительность : 42 м.
Битрейт : 4444 Кбит/сек
Ширина : 1280 пикселей
Высота : 720 пикселей
Соотношение сторон : 16:9
Режим частоты кадров : Постоянный
Частота кадров : 23,976 кадра/сек
Цветовое пространство : YUV
Субдискретизация насыщенности : 4:2:0
Битовая глубина : 8 бит
Тип развёртки : Прогрессивная
Бит/(Пиксели*Кадры) : 0.201
Размер потока : 1,30 Гбайт (94%)
Библиотека кодирования : x264 core 119
Настройки программы : cabac=1 / ref=1 / deblock=1:0:0 / analyse=0x1:0x1 / me=dia / subme=1 / psy=1 / psy_rd=1.00:0.00 / mixed_ref=0 / me_range=16 / chroma_me=1 / trellis=0 / 8x8dct=0 / cqm=0 / deadzone=21,11 / fast_pskip=1 / chroma_qp_offset=0 / threads=2 / sliced_threads=0 / nr=0 / decimate=1 / interlaced=0 / bluray_compat=0 / constrained_intra=0 / bframes=3 / b_pyramid=2 / b_adapt=1 / b_bias=0 / direct=1 / weightb=1 / open_gop=0 / weightp=1 / keyint=250 / keyint_min=23 / scenecut=40 / intra_refresh=0 / rc=abr / mbtree=0 / bitrate=4444 / ratetol=1.0 / qcomp=0.60 / qpmin=0 / qpmax=69 / qpstep=4 / ip_ratio=1.40 / pb_ratio=1.30 / aq=1:1.00
Default : Да
Forced : Нет
Аудио
Идентификатор : 2
Формат : AC-3
Формат/Информация : Audio Coding 3
Расширение режима : CM (complete main)
Параметр Endianness формата : Big
Режим смешивания : Header stripping
Идентификатор кодека : A_AC3
Продолжительность : 42 м.
Вид битрейта : Постоянный
Битрейт : 192 Кбит/сек
Каналы : 2 канала
Расположение каналов : Front: L R
Частота : 48,0 КГц
Частота кадров : 31,250 кадров/сек (1536 spf)
Метод сжатия : С потерями
Задержка видео : -83 мс.
Размер потока : 59,0 Мбайт (4%)
Default : Да
Forced : Нет
Внимание! Раздача ведётся путём добавления новых серий; при каждом добавлении создаётся новый торрент. Чтобы начать докачку новой серии, пользователям необходимо сделать следующее:
(1) остановить скачивание,
(2) удалить старый торрент у себя из клиента (старые серии удалять не надо),
(3) скачать новый торрент и запустить его у себя в клиенте вместо старого, при этом указать клиенту путь в старую папку куда и должно происходить скачивание новых серий.
Ваш клиент при этом должен произвести хеширование (проверку) старой папки (если не производит сам - помогите ему сделать это), и будет докачивать только те серии которых у вас ещё нет. Старые серии при этом не удаляются, а продолжают раздаваться!
Eсли вы уже удалили старые серии, то предотвратить повторную закачку старых серий можно, отжав галочку в соответсвующих местах при запуске нового торрента. По возможности, желательно не удалять старые серии как можно дольше чтобы релизёр не столько продолжал раздавать старые серии, а смог сконцентрироваться на новых.



   Похожие торренты   Торрент   Размер 
В этой теме нет новых непрочитанных сообщений. Нереальное шоу (Нереально) / UnReaL [02x01 из 10] (2016) WEB-DLRip| Sunshine Studio

34 | 2

520.45 МБ

В этой теме нет новых непрочитанных сообщений. Нереально / UnREAL [02x01-02 из 10] (2016) HDTV 720p | Gears Media

1 | 0

2.04 ГБ

В этой теме нет новых непрочитанных сообщений. Нереально / UnREAL [02x01-03 из 10] (2016) HDTV 720p | Gears Media

11 | 0

3.05 ГБ

В этой теме нет новых непрочитанных сообщений. Нереально / UnREAL [02x01-05 из 10] (2016) HDTV 720p | Gears Media

10 | 5

5.27 ГБ

В этой теме нет новых непрочитанных сообщений. Нереально / UnREAL [02x01-09 из 10] (2016) HDTV 720p | Gears Media

5 | 6

9.36 ГБ

В этой теме нет новых непрочитанных сообщений. Нереально / UnREAL [02x01-07 из 10] (2016) HDTV 720p | Gears Media

16 | 14

7.4 ГБ

В этой теме нет новых непрочитанных сообщений. Нереально / UnREAL [02x01-06 из 10] (2016) HDTV 720p | Gears Media

8 | 6

6.41 ГБ




Вы не можете начинать темы
Вы не можете отвечать на сообщения
Вы не можете редактировать свои сообщения
Вы не можете удалять свои сообщения
Вы не можете добавлять вложения

Перейти:  
Для Мосгорсуда, Роскомнадзора и рекламодателей: mosgorsud-torrent[собачка]yandex.ru
 Вход
ppkBB3cker v.2 © 2008-2014 @ PPK
[ Time : 0.051s | 17 Queries | GZIP : On ]

Торрент трекер RUTOR.IN, Не можете зайти на rutor.org? Какой новый адрес рутор? Какое зеркало рутор? Не работает rutor.org и зеркала? Тогда наш торрент специально для вас. Rutor.in неофициальное зеркало rutor. В случае если у Вас заблокирован rutor или вдруг Вы не можете на него зайти, то Вы без труда сможете скачать бесплатно и без рекламы последние новинки кино, игр, сериалов и прочего у нас, на Rutor.in. Не нужно использовать прокси, чтобы зайти на рутор, достаточно воспользоваться нашим ресурсом. Все новые фильмы, игры, сериалы, книги и музыка за 2013 и 2014 годы через торрент бесплатно. Скачивайте фильмы в хорошем качестве, игры для пк, xbox, playstation без регистрации. У нас вы найдете новые Зарубежные сериалы и Русские сериалы 2013, 2014, 2015 годов. Оставайтесь с нами, качайте любимые фильмы, игры, сериалы, книги и музыку.