img image001 image001 image001 image001 image001 image001 image001 image001 image001 image001 image001 image001 image001 image001 image001

Planets Sun Sun Sun
Статистика раздачи
Автор: Nickolas3434 | Размер: 22.7 ГБ | Добавлен: 17 июн 2016
Раздают: 10    Качают: 0
Скачать торрент
Скачать торрент
Описание торрента

СообщениеДобавлено: 17 июн 2016 


Информация о фильме
Название: Хэнк Зипцер
Оригинальное название: Hank Zipzer
Год выхода: 2014-2015
Жанр: комедия, семейный
Режиссер: Ребекка Рейкрофт, Мэтт Блум
В ролях: Джульетт Кауэн, Мадлен Холлидэй, Ник Джеймс, Джейден Жан Поль-Денис, Фелисити Монтегю, Хлоя Вонг, Нил Фицморис, Ник Мохаммед, Генри Уинклер, Джут Фоли
О фильме:
Сериал снят по книге знаменитого американского актера, режиссера и сценариста Генри Уинклера о мальчике Зипцере, страдающем дислексией. Каждая новая серия – это увлекательная история о том, как главный герой выпутывается из сложных ситуаций, оставаясь при этом обаятельным мальчишкой...

Производство: Великобритания / BBC Television Centre, DHX Media, Kindle Entertainment
Продолжительность: 26 x ~00:24:00
Перевод: профессиональный (многоголосый закадровый)
Файл
Качество: HDTVRip 1080p
Формат: MKV
Видео: MPEG-4 AVC, 1920x1080 (16:9), 25.000 fps, ~5000 kbps
Аудио: русский, AC3 2.0, 48 kHz, 192 kbps
Формат : Matroska
Версия формата : Version 4 / Version 2
Размер файла : 891 Мбайт
Продолжительность : 24 м.
Общий поток : 5170 Кбит/сек
Дата кодирования : UTC 2015-12-21 11:21:34
Программа кодирования : mkvmerge v7.9.0 ('Birds') 64bit
Библиотека кодирования : Lavf57.3.100
Видео
Идентификатор : 1
Формат : AVC
Формат/Информация : Advanced Video Codec
Профиль формата : High@L4.1
Параметр CABAC формата : Да
Параметр ReFrames формата : 4 кадра
Идентификатор кодека : V_MPEG4/ISO/AVC
Продолжительность : 24 м.
Битрейт : 4876 Кбит/сек
Ширина : 1920 пикселей
Высота : 1080 пикселей
Соотношение сторон : 16:9
Режим частоты кадров : Постоянный
Частота кадров : 25,000 кадров/сек
Цветовое пространство : YUV
Субдискретизация насыщенности : 4:2:0
Битовая глубина : 8 бит
Тип развёртки : Прогрессивная
Бит/(Пиксели*Кадры) : 0.094
Размер потока : 840 Мбайт (94%)
Библиотека кодирования : Lavc57.4.100 libx264
Язык : English
Default : Да
Forced : Нет
DURATION : 00:24:21.725000000
Аудио
Идентификатор : 2
Формат : AC-3
Формат/Информация : Audio Coding 3
Расширение режима : CM (complete main)
Параметр Endianness формата : Big
Идентификатор кодека : A_AC3
Продолжительность : 24 м.
Вид битрейта : Постоянный
Битрейт : 192 Кбит/сек
Каналы : 2 канала
Расположение каналов : Front: L R
Частота : 48,0 КГц
Метод сжатия : С потерями
Задержка видео : 19 мс.
Размер потока : 33,1 Мбайт (4%)
Библиотека кодирования : Lavc57.4.100 ac3_fixed
Язык : Russian
Default : Да
Forced : Нет
DURATION : 00:24:20.704000000



   Похожие торренты   Торрент   Размер 
В этой теме нет новых непрочитанных сообщений. Бокс. Анджело Сантана - Хэнк Ланди + андеркард [21.02] (2014) HDTVRip 720р | 60 fps

3 | 6

5.37 ГБ

В этой теме нет новых непрочитанных сообщений. Hank Williams, Jr. - It's About Time (2016) MP3

104 | 4

101.75 МБ

В этой теме нет новых непрочитанных сообщений. Хэнк Муди - Бог ненавидит нас всех (2011) RTF

7 | 2

5.39 МБ

В этой теме нет новых непрочитанных сообщений. Сборник клипов - Mediaplayer : ClubDancePop (2014-2015) HDTVRip 1080p

99 | 77

21.07 ГБ

В этой теме нет новых непрочитанных сообщений. VA - Летний марафон № 173 (Незабываемый Country Хит) (2014-2015) HDTVRip 1080p

75 | 8

2.26 ГБ

В этой теме нет новых непрочитанных сообщений. Чёрные паруса / Black Sails [S01-S02] (2014-2015 ) HDTVRip 1080p l AlexFilm

15 | 78

51.97 ГБ

В этой теме нет новых непрочитанных сообщений. Чёрные паруса / Black Sails [01-02x01-12 из 18] (2014-2015 ) HDTVRip 1080p l AlexFilm

548 | 247

34.02 ГБ




Вы не можете начинать темы
Вы не можете отвечать на сообщения
Вы не можете редактировать свои сообщения
Вы не можете удалять свои сообщения
Вы не можете добавлять вложения

Перейти:  
Для Мосгорсуда, Роскомнадзора и рекламодателей: mosgorsud-torrent[собачка]yandex.ru
 Вход
ppkBB3cker v.2 © 2008-2014 @ PPK
[ Time : 0.056s | 16 Queries | GZIP : Off ]

cron