img image001 image001 image001 image001 image001 image001 image001 image001 image001 image001 image001 image001 image001 image001 image001

Planets Sun Sun Sun
Статистика раздачи
Автор: Nickolas3434 | Размер: 4.37 ГБ | Добавлен: 19 июн 2016
Раздают: 25    Качают: 5
Скачать торрент
Скачать торрент
Описание торрента

СообщениеДобавлено: 19 июн 2016 

Страна: Россия
Производство: Эталон-фильм
Жанр: драма
Год выпуска: 2007
Продолжительность: 12 серий ~ по 45 мин.
Перевод: не требуется
Субтитры: нет
Оригинальная аудиодорожка: русский
Режиссер: Николай Досталь
В ролях:
Игорь Класс, Владимир Капустин, Елена Руфанова, Инга Оболдина, Владимир Конкин, Александр Трофимов, Ирина Муравьёва, Марк Наассан, Данила Козловский, Надежда Аникеева, Роман Мадянов, Алиса Хазанова, Тимофей Трибунцев, Михаил Крылов, Сергей Перелыгин, Елена Лядова, Виктор Бегунов, Эдуард Федашко, Николай Мачульский, Максим Гудков, Анна Рудь, Александр Обласов, Феликс Антипов, Александр Строев (II), Александр Яценко, Юрис Горнавс, Александр Коршунов, Дмитрий Мельников, Сергей Ануфриев, Алексей Шевченков, Сергей Кагаков, Дмитрий Тихонов, Сергей Оленберг, Вячеслав Ковалёв, Владимир Устюгов, Михаил Петухов, Валерий Золотухин, Ирина Розанова...
Полный список актёров
Описание:
В основе сюжета - "Колымские рассказы" Варлама Шаламова
Автор "Колымских рассказов" и многих других произведений 17 лет провел в страшных лагерях ГУЛАГа на Колыме. Срок, который получил Варлам Тихонович в 1929 году, был за распространение письма Ленина съезду, в котором тот критикует Сталина. В наше время это письмо называют "завещанием Ленина"…





Исходник: 3хDVD9 R5
Качество видео: DVDRip
Формат видео: AVI
Видео: 640х368 (1,739:1), 25 fps, XviD ~ 1040 kbps avg, 0.177 bit/pixel
Аудио: 48 kHz, MP3 2.0, 128 kbps
Раздача от:
Общее
Полное имя : Zaveshanie.Lenina.1955.DVDRip-4.37_[New-team]_by_AVP_Studio\03.avi
Формат : AVI
Формат/Информация : Audio Video Interleave
Размер файла : 372 Мбайт
Продолжительность : 44 м.
Общий поток : 1178 Кбит/сек
Программа кодирования : VirtualDubMod 1.5.10.3 | www.virtualdub-fr.org || (build 2550/release)
Библиотека кодирования : VirtualDubMod build 2550/release
Видео
Идентификатор : 0
Формат : MPEG-4 Visual
Профиль формата : Advanced Simple@L5
Параметр BVOP формата : 1
Параметр QPel формата : Нет
Параметр GMC формата : Без точки перехода
Параметр матрицы формата : Выборочная
Идентификатор кодека : XVID
Идентификатор кодека/Подсказка : XviD
Продолжительность : 44 м.
Битрейт : 1040 Кбит/сек
Ширина : 640 пикселей
Высота : 368 пикселей
Соотношение сторон : 1,739
Частота кадров : 25,000 кадров/сек
Цветовое пространство : YUV
Субдискретизация насыщенности : 4:2:0
Битовая глубина : 8 бит
Тип развёртки : Прогрессивная
Метод сжатия : С потерями
Бит/(Пиксели*Кадры) : 0.177
Размер потока : 328 Мбайт (88%)
Библиотека кодирования : XviD 1.2.1 (UTC 2008-12-04)
Аудио
Идентификатор : 1
Формат : MPEG Audio
Версия формата : Version 1
Профиль формата : Layer 3
Идентификатор кодека : 55
Идентификатор кодека/Подсказка : MP3
Продолжительность : 44 м.
Вид битрейта : Постоянный
Битрейт : 128 Кбит/сек
Каналы : 2 канала
Частота : 48,0 КГц
Метод сжатия : С потерями
Размер потока : 40,4 Мбайт (11%)
Выравнивание : Соединение по промежуткам
Продолжительность промежутка : 40 мс. (1,00 видеокадр)
Время предзагрузки промежутка : 504 мс.
Библиотека кодирования : LAME3.99r
Настройки программы : -m s -V 4 -q 2 -lowpass 17 -b 128





   Похожие торренты   Торрент   Размер 
В этой теме нет новых непрочитанных сообщений. Завещание Ленина [01-12 из 12] (2007) DVDRip от New-Team

3 | 1

7.45 ГБ

В этой теме нет новых непрочитанных сообщений. Завещание Ленина [01-12 из 12] (2007) DVDRip-AVC от New-Team

26 | 4

7.42 ГБ

В этой теме нет новых непрочитанных сообщений. Завещание ленина [01-12 из 12] (2007) DVDRip

281 | 30

6.51 ГБ

В этой теме нет новых непрочитанных сообщений. Завещание Ленина [01-12 из 12] (2007) DVDRip-AVC от fandora

86 | 6

10.78 ГБ

В этой теме нет новых непрочитанных сообщений. Завещание Холкрофта / The Holcroft Covenant (1985) DVDRip от New-Team

33 | 5

1.46 ГБ

В этой теме нет новых непрочитанных сообщений. Гарри Поттер и Партия Ленина / Harry Potter and the Party Of Lenin (2009) DVDRip

18 | 3

1.46 ГБ

В этой теме нет новых непрочитанных сообщений. Завещание Сталина (1993) DVDRip

46 | 1

1.25 ГБ




Вы не можете начинать темы
Вы не можете отвечать на сообщения
Вы не можете редактировать свои сообщения
Вы не можете удалять свои сообщения
Вы не можете добавлять вложения

Перейти:  
Для Мосгорсуда, Роскомнадзора и рекламодателей: mosgorsud-torrent[собачка]yandex.ru
 Вход
ppkBB3cker v.2 © 2008-2014 @ PPK
[ Time : 0.048s | 15 Queries | GZIP : Off ]

Торрент трекер RUTOR.IN, Не можете зайти на rutor.org? Какой новый адрес рутор? Какое зеркало рутор? Не работает rutor.org и зеркала? Тогда наш торрент специально для вас. Rutor.in неофициальное зеркало rutor. В случае если у Вас заблокирован rutor или вдруг Вы не можете на него зайти, то Вы без труда сможете скачать бесплатно и без рекламы последние новинки кино, игр, сериалов и прочего у нас, на Rutor.in. Не нужно использовать прокси, чтобы зайти на рутор, достаточно воспользоваться нашим ресурсом. Все новые фильмы, игры, сериалы, книги и музыка за 2013 и 2014 годы через торрент бесплатно. Скачивайте фильмы в хорошем качестве, игры для пк, xbox, playstation без регистрации. У нас вы найдете новые Зарубежные сериалы и Русские сериалы 2013, 2014, 2015 годов. Оставайтесь с нами, качайте любимые фильмы, игры, сериалы, книги и музыку.