img image001 image001 image001 image001 image001 image001 image001 image001 image001 image001 image001 image001 image001 image001 image001

Planets Sun Sun Sun
Статистика раздачи
Автор: Nickolas3434 | Размер: 7.42 ГБ | Добавлен: 19 июн 2016
Раздают: 28    Качают: 5
Скачать торрент
Скачать торрент
Описание торрента

СообщениеДобавлено: 19 июн 2016 

Страна: Россия
Производство: Эталон-фильм
Жанр: драма
Год выпуска: 2007
Продолжительность: 12 серий ~ по 45 мин.
Перевод: не требуется
Субтитры: нет
Оригинальная аудиодорожка: русский
Режиссер: Николай Досталь
В ролях:
Игорь Класс, Владимир Капустин, Елена Руфанова, Инга Оболдина, Владимир Конкин, Александр Трофимов, Ирина Муравьёва, Марк Наассан, Данила Козловский, Надежда Аникеева, Роман Мадянов, Алиса Хазанова, Тимофей Трибунцев, Михаил Крылов, Сергей Перелыгин, Елена Лядова, Виктор Бегунов, Эдуард Федашко, Николай Мачульский, Максим Гудков, Анна Рудь, Александр Обласов, Феликс Антипов, Александр Строев (II), Александр Яценко, Юрис Горнавс, Александр Коршунов, Дмитрий Мельников, Сергей Ануфриев, Алексей Шевченков, Сергей Кагаков, Дмитрий Тихонов, Сергей Оленберг, Вячеслав Ковалёв, Владимир Устюгов, Михаил Петухов, Валерий Золотухин, Ирина Розанова...
Полный список актёров
Описание:
В основе сюжета - "Колымские рассказы" Варлама Шаламова
Автор "Колымских рассказов" и многих других произведений 17 лет провел в страшных лагерях ГУЛАГа на Колыме. Срок, который получил Варлам Тихонович в 1929 году, был за распространение письма Ленина съезду, в котором тот критикует Сталина. В наше время это письмо называют "завещанием Ленина"…





Исходник: 3хDVD9 R5
Качество видео: DVDRip-AVC
Формат видео: MKV
Видео: 688->818х460 (16:9), 25 fps, H264 ~ 1555 kbps avg, 0.197 bit/pixel
Аудио: 48 kHz, Dolby Digital AC3 5.1, 448 kbps
Раздача от:
Общее
Полное имя : Zaveshanie.Lenina.1955.DVDRip-AVC_[New-team]_by_AVP_Studio\01.mkv
Формат : Matroska
Версия формата : Version 2
Размер файла : 631 Мбайт
Продолжительность : 44 м.
Общий поток : 2001 Кбит/сек
Дата кодирования : UTC 2016-06-17 18:04:01
Программа кодирования : mkvmerge v6.1.0 ('Old Devil') built on Mar 4 2013 09:10:42
Библиотека кодирования : libebml v1.3.0 + libmatroska v1.4.0
Видео
Идентификатор : 1
Формат : AVC
Формат/Информация : Advanced Video Codec
Профиль формата : High@L4.1
Параметр CABAC формата : Да
Параметр ReFrames формата : 10 кадров
Идентификатор кодека : V_MPEG4/ISO/AVC
Продолжительность : 44 м.
Битрейт : 1555 Кбит/сек
Ширина : 688 пикселей
Высота : 460 пикселей
Соотношение сторон : 16:9
Режим частоты кадров : Постоянный
Частота кадров : 25,000 кадров/сек
Цветовое пространство : YUV
Субдискретизация насыщенности : 4:2:0
Битовая глубина : 8 бит
Тип развёртки : Прогрессивная
Бит/(Пиксели*Кадры) : 0.197
Размер потока : 477 Мбайт (76%)
Библиотека кодирования : x264 core 148 r2597 e86f3a1
Настройки программы : cabac=1 / ref=10 / deblock=1:-2:-1 / analyse=0x3:0x113 / me=umh / subme=10 / psy=1 / psy_rd=1.00:0.00 / mixed_ref=1 / me_range=32 / chroma_me=1 / trellis=2 / 8x8dct=1 / cqm=0 / deadzone=21,11 / fast_pskip=1 / chroma_qp_offset=-2 / threads=6 / lookahead_threads=1 / sliced_threads=0 / nr=0 / decimate=0 / interlaced=0 / bluray_compat=0 / constrained_intra=0 / bframes=8 / b_pyramid=2 / b_adapt=2 / b_bias=0 / direct=3 / weightb=1 / open_gop=0 / weightp=2 / keyint=250 / keyint_min=25 / scenecut=40 / intra_refresh=0 / rc=2pass / mbtree=0 / bitrate=1555 / ratetol=1.0 / qcomp=0.60 / qpmin=0 / qpmax=69 / qpstep=4 / cplxblur=20.0 / qblur=0.5 / ip_ratio=1.40 / pb_ratio=1.30 / aq=1:1.00
Default : Да
Forced : Нет
Аудио
Идентификатор : 2
Формат : AC-3
Формат/Информация : Audio Coding 3
Расширение режима : CM (complete main)
Параметр Endianness формата : Big
Идентификатор кодека : A_AC3
Продолжительность : 44 м.
Вид битрейта : Постоянный
Битрейт : 448 Кбит/сек
Каналы : 6 каналов
Расположение каналов : Front: L C R, Side: L R, LFE
Частота : 48,0 КГц
Частота кадров : 31,250 кадров/сек (1536 spf)
Метод сжатия : С потерями
Размер потока : 141 Мбайт (22%)
Default : Да
Forced : Нет





   Похожие торренты   Торрент   Размер 
В этой теме нет новых непрочитанных сообщений. Завещание Ленина [01-12 из 12] (2007) DVDRip от New-Team

25 | 6

4.37 ГБ

В этой теме нет новых непрочитанных сообщений. Завещание Ленина [01-12 из 12] (2007) DVDRip от New-Team

3 | 1

7.45 ГБ

В этой теме нет новых непрочитанных сообщений. Завещание ленина [01-12 из 12] (2007) DVDRip

281 | 30

6.51 ГБ

В этой теме нет новых непрочитанных сообщений. Завещание Ленина [01-12 из 12] (2007) DVDRip-AVC от fandora

86 | 6

10.78 ГБ

В этой теме нет новых непрочитанных сообщений. Завещание Холкрофта / The Holcroft Covenant (1985) DVDRip от New-Team

33 | 5

1.46 ГБ

В этой теме нет новых непрочитанных сообщений. Гарри Поттер и Партия Ленина / Harry Potter and the Party Of Lenin (2009) DVDRip

18 | 3

1.46 ГБ

В этой теме нет новых непрочитанных сообщений. Завещание Сталина (1993) DVDRip

46 | 1

1.25 ГБ




Вы не можете начинать темы
Вы не можете отвечать на сообщения
Вы не можете редактировать свои сообщения
Вы не можете удалять свои сообщения
Вы не можете добавлять вложения

Перейти:  
Для Мосгорсуда, Роскомнадзора и рекламодателей: mosgorsud-torrent[собачка]yandex.ru
 Вход
ppkBB3cker v.2 © 2008-2014 @ PPK
[ Time : 0.022s | 14 Queries | GZIP : Off ]
CGP output time : 0.030s | 5 Queries | GZIP : Off

Торрент трекер RUTOR.IN, Не можете зайти на rutor.org? Какой новый адрес рутор? Какое зеркало рутор? Не работает rutor.org и зеркала? Тогда наш торрент специально для вас. Rutor.in неофициальное зеркало rutor. В случае если у Вас заблокирован rutor или вдруг Вы не можете на него зайти, то Вы без труда сможете скачать бесплатно и без рекламы последние новинки кино, игр, сериалов и прочего у нас, на Rutor.in. Не нужно использовать прокси, чтобы зайти на рутор, достаточно воспользоваться нашим ресурсом. Все новые фильмы, игры, сериалы, книги и музыка за 2013 и 2014 годы через торрент бесплатно. Скачивайте фильмы в хорошем качестве, игры для пк, xbox, playstation без регистрации. У нас вы найдете новые Зарубежные сериалы и Русские сериалы 2013, 2014, 2015 годов. Оставайтесь с нами, качайте любимые фильмы, игры, сериалы, книги и музыку.