img image001 image001 image001 image001 image001 image001 image001 image001 image001 image001 image001 image001 image001 image001 image001

Planets Sun Sun Sun
Статистика раздачи
Автор: Nickolas3434 | Размер: 1.47 ГБ | Добавлен: 19 июн 2016
Раздают: 73    Качают: 13
Скачать торрент
Скачать торрент
Описание торрента

СообщениеДобавлено: 19 июн 2016 


Информация о фильме
Название: Подчинение
Оригинальное название: Submission
Год выхода: 2016
Жанр: драма, мелодрама, детектив
Режиссер: Джеки Ст. Джеймс
В ролях: Эшлинн Йенни, Джастин Берти, Скин Даймонд, Виктория Ливайн, Кевин Нельсон, Ника Хитрова, Брент Харви, Ричи Кэлхун, Сара Лав, Валери Бэйбер
О фильме:
Сексуальное пробуждение прекрасной, но неудовлетворенной Эшли наступает в тот момент, когда она находит популярный эротический роман «Рабыня» Нолана Китса. Ее увлечение таинственным автором заводит ее в сексуальный, но опасный любовный треугольник, где все не те, кем кажутся, и где фантазии сходят со страниц книг.

Страна: США
Студия: Plausible Films
Продолжительность: ~00:25:00 серия
Перевод: Любительский двухголосый [HamsterStudio]
Файл
Кодек: XviD
Качество: HDTVRip
Видео: 720x400, 1 268 Kbps, 23.976 (23976/1000) fps
Звук: MP3, 128 кб/с (2 ch)
Семпл

General
Complete name : /home/roma/Відео/Подчинение (Submission)/Submission.S01E01.HDTVRip.HamsterStudio.avi
Format : AVI
Format/Info : Audio Video Interleave
File size : 251 MiB
Duration : 24mn 56s
Overall bit rate : 1 405 Kbps
Writing application : VirtualDubModRus 1.5.10.2 (build 2540/release)
Writing library : VirtualDubMod build 2540/release
Video
ID : 0
Format : MPEG-4 Visual
Format profile : Advanced Simple@L5
Format settings, BVOP : 1
Format settings, QPel : No
Format settings, GMC : No warppoints
Format settings, Matrix : Default (H.263)
Codec ID : XVID
Codec ID/Hint : XviD
Duration : 24mn 56s
Bit rate : 1 268 Kbps
Width : 720 pixels
Height : 400 pixels
Display aspect ratio : 16:9
Frame rate : 23.976 (23976/1000) fps
Color space : YUV
Chroma subsampling : 4:2:0
Bit depth : 8 bits
Scan type : Progressive
Compression mode : Lossy
Bits/(Pixel*Frame) : 0.184
Stream size : 226 MiB (90%)
Writing library : XviD 1.2.1 (UTC 2008-12-04)
Audio
ID : 1
Format : MPEG Audio
Format version : Version 1
Format profile : Layer 3
Mode : Joint stereo
Mode extension : MS Stereo
Codec ID : 55
Codec ID/Hint : MP3
Duration : 24mn 56s
Bit rate mode : Constant
Bit rate : 128 Kbps
Channel(s) : 2 channels
Sampling rate : 48.0 KHz
Compression mode : Lossy
Stream size : 22.8 MiB (9%)
Alignment : Aligned on interleaves
Interleave, duration : 42 ms (1.00 video frame)
Interleave, preload duration : 504 ms

Релиз от: HamsterStudio



   Похожие торренты   Торрент   Размер 
В этой теме нет новых непрочитанных сообщений. Подчинение / Submission [01x01-02 из 6] (2016) HDTVRip от HamsterStudio | L2

1 | 0

501.38 МБ

В этой теме нет новых непрочитанных сообщений. Подчинение / Submission [01x01-04 из 06] (2016) HDTVRip 720p | BaibaKo

375 | 57

2.44 ГБ

В этой теме нет новых непрочитанных сообщений. VA - Submission Recordings Pres. Miami 2016 (2016) MP3

0 | 0

602.17 МБ

В этой теме нет новых непрочитанных сообщений. Охотники / Hunters [S01] (2016) HDTVRip от HamsterStudio | L2

249 | 67

5.28 ГБ

В этой теме нет новых непрочитанных сообщений. Сожители / Crashing [S01] (2016) HDTVRip от HamsterStudio | L2

37 | 9

1.19 ГБ

В этой теме нет новых непрочитанных сообщений. Куку / Cuckoo [S03] (2016) HDTVRip от HamsterStudio | L2

12 | 8

1.87 ГБ

В этой теме нет новых непрочитанных сообщений. Цветы / Flowers [S01] (2016) HDTVRip от HamsterStudio | L2

15 | 5

1.19 ГБ




Вы не можете начинать темы
Вы не можете отвечать на сообщения
Вы не можете редактировать свои сообщения
Вы не можете удалять свои сообщения
Вы не можете добавлять вложения

Перейти:  
Для Мосгорсуда, Роскомнадзора и рекламодателей: mosgorsud-torrent[собачка]yandex.ru
 Вход
ppkBB3cker v.2 © 2008-2014 @ PPK
[ Time : 0.515s | 15 Queries | GZIP : Off ]

Торрент трекер RUTOR.IN, Не можете зайти на rutor.org? Какой новый адрес рутор? Какое зеркало рутор? Не работает rutor.org и зеркала? Тогда наш торрент специально для вас. Rutor.in неофициальное зеркало rutor. В случае если у Вас заблокирован rutor или вдруг Вы не можете на него зайти, то Вы без труда сможете скачать бесплатно и без рекламы последние новинки кино, игр, сериалов и прочего у нас, на Rutor.in. Не нужно использовать прокси, чтобы зайти на рутор, достаточно воспользоваться нашим ресурсом. Все новые фильмы, игры, сериалы, книги и музыка за 2013 и 2014 годы через торрент бесплатно. Скачивайте фильмы в хорошем качестве, игры для пк, xbox, playstation без регистрации. У нас вы найдете новые Зарубежные сериалы и Русские сериалы 2013, 2014, 2015 годов. Оставайтесь с нами, качайте любимые фильмы, игры, сериалы, книги и музыку.
cron