img image001 image001 image001 image001 image001 image001 image001 image001 image001 image001 image001 image001 image001 image001 image001

Planets Sun Sun Sun
Статистика раздачи
Автор: Nickolas3434 | Размер: 1.32 ГБ | Добавлен: 02 июл 2016
Раздают: 8    Качают: 116
Скачать торрент
Скачать торрент
Описание торрента

СообщениеДобавлено: 02 июл 2016 


Информация о фильме
Название: Другое время (Те самые дни)
Оригинальное название: Another Period
Год выхода: 2016
Жанр: комедия
Режиссер: Джереми Коннер
В ролях: Майкл Йен Блэк, Пэйджет Брюстер, Кристина Хендрикс, Наташа Леджеро, Рики Линдхоум, Армен Вайцман, Лорен Эш, Бет Довер, Бретт Гельман, Джейсон Риттер
О фильме:
1901 год, шикарное поместье в одном из городов США. Избалованные сестры Беатрис и Лилиан Белакорт живут роскошной жизнью, предаваясь всем доступным им порокам. Больше всего на свете они любят комфорт, свою красоту и семейное наследство, а также кокаиновое вино и кидаться в слуг профитролями. Семья и ближайшее окружение им под стать, а их отношения достойны отдельной мыльной оперы: отец тайно находится в сексуальном рабстве у новой служанки-экс-проститутки, мать сидит на модном морфии, мужья любят не своих жен, а друг друга, а одна из сестер — своего брата.

Страна: США
Студия: Leggero Lindhome Productions, Konner Productions, Red Hour Films
Продолжительность: ~00:21:00 серия
Перевод: Профессиональный двухголосый [Ozz]
Файл
Кодек: x264
Качество: HDTVRip 720p
Видео: 1280x718, 23,976 кадра/сек, 3958 Кбит/сек
Аудио 1: AC3, 6 канала, 384 Кбит/сек [Русский]
Аудио 2: AC3, 6 канала, 384 Кбит/сек [Английский]
Субтитры: Русские
Семпл

Общее
Уникальный идентификатор : 183336230111655574935889945904725335932 (0x89ED4607218A188ABDB2855460739F7C)
Полное имя :Another.Period.S02.720p.WEB-DL.Rus.Eng.OzzAnother.Period.S02E01.720p.WEB-DL.Rus.Eng.Ozz.mkv
Формат : Matroska
Версия формата : Version 4 / Version 2
Размер файла : 677 Мбайт
Продолжительность : 21 м.
Общий поток : 4430 Кбит/сек
Дата кодирования : UTC 2016-06-28 13:38:55
Программа кодирования : mkvmerge v6.3.0 ('You can't stop me!') built on Jun 28 2013 20:09:41
Библиотека кодирования : libebml v1.3.0 + libmatroska v1.4.0
Видео
Идентификатор : 1
Формат : AVC
Формат/Информация : Advanced Video Codec
Профиль формата : High@L3.1
Параметр CABAC формата : Нет
Параметр ReFrames формата : 2 кадра
Идентификатор кодека : V_MPEG4/ISO/AVC
Продолжительность : 21 м.
Битрейт : 3958 Кбит/сек
Ширина : 1280 пикселей
Высота : 718 пикселей
Соотношение сторон : 16:9
Режим частоты кадров : Постоянный
Частота кадров : 23,976 кадра/сек
Цветовое пространство : YUV
Субдискретизация насыщенности : 4:2:0
Битовая глубина : 8 бит
Тип развёртки : Прогрессивная
Бит/(Пиксели*Кадры) : 0.180
Размер потока : 605 Мбайт (89%)
Язык : English
Default : Да
Forced : Нет
Основные цвета : BT.709
Характеристики трансфера : BT.709
Коэффициенты матрицы : BT.709
Аудио #1
Идентификатор : 2
Формат : AC-3
Формат/Информация : Audio Coding 3
Расширение режима : CM (complete main)
Параметр Endianness формата : Big
Идентификатор кодека : A_AC3
Продолжительность : 21 м.
Вид битрейта : Постоянный
Битрейт : 192 Кбит/сек
Каналы : 2 канала
Расположение каналов : Front: L R
Частота : 48,0 КГц
Битовая глубина : 16 бит
Метод сжатия : С потерями
Размер потока : 29,4 Мбайт (4%)
Заголовок : DVO Ozz-tv
Язык : Russian
Default : Да
Forced : Нет
Аудио #2
Идентификатор : 3
Формат : AC-3
Формат/Информация : Audio Coding 3
Расширение режима : CM (complete main)
Параметр Endianness формата : Big
Идентификатор кодека : A_AC3
Продолжительность : 21 м.
Вид битрейта : Постоянный
Битрейт : 192 Кбит/сек
Каналы : 2 канала
Расположение каналов : Front: L R
Частота : 48,0 КГц
Битовая глубина : 16 бит
Метод сжатия : С потерями
Размер потока : 29,4 Мбайт (4%)
Язык : English
Default : Нет
Forced : Нет
Текст #1
Идентификатор : 4
Формат : UTF-8
Идентификатор кодека : S_TEXT/UTF8
Идентификатор кодека/Информация : UTF-8 Plain Text
Заголовок : Trotteville
Язык : Russian
Default : Нет
Forced : Нет
Текст #2
Идентификатор : 5
Формат : UTF-8
Идентификатор кодека : S_TEXT/UTF8
Идентификатор кодека/Информация : UTF-8 Plain Text
Язык : English
Default : Нет
Forced : Нет

Когда раздача ведётся путём добавления новых серий, при каждом добавлении создётся новый торрент. Чтобы начать докачку новой серии, пользователям необходимо сделать следующее:
(1) остановить скачивание,
(2) удалить старый торрент у себя из клиента (старые серии удалять не надо),
(3) скачать новый торрент и запустить его у себя в клиенте вместо старого, при этом указать клиенту путь в старую папку, куда и должно происходить скачивание новых серий.
Ваш клиент при этом должен произвести хеширование (проверку) старой папки (если не производит сам - помогите ему сделать это), и будет докачивать только те серии, которых у вас ещё нет. Старые серии при этом не удаляются, а продолжают раздаваться!
Eсли вы уже удалили старые серии, то предотвратить повторную закачку старых серий можно, отжав галочку в соответсвующих местах при запуске нового торрента. По возможности, желательно не удалять старые серии как можно дольше, чтобы релизёр не столько продолжал раздавать старые серии, а смог сконцентрироваться на новых.

Релиз от: Ozz



   Похожие торренты   Торрент   Размер 
В этой теме нет новых непрочитанных сообщений. Другое время / Те самые дни / Another Period [02x01-04 из 10] (2016) WEB-DL 720p от OZZ | P2

84 | 135

2.64 ГБ

В этой теме нет новых непрочитанных сообщений. Другое время / Те самые дни / Another Period [02x01-03 из 10] (2016) WEB-DL 720p от OZZ | P2

13 | 131

1.98 ГБ

В этой теме нет новых непрочитанных сообщений. Другое время / Те самые дни / Another Period [S02] (2016) WEB-DL 720p | OZZ

34 | 31

7.27 ГБ

В этой теме нет новых непрочитанных сообщений. Другое время / Те самые дни / Another Period [S01-02] (2015-2016) WEB-DLRip | OZZ

53 | 63

6.22 ГБ

В этой теме нет новых непрочитанных сообщений. Другое время / Another Period [S01] (2015) WEBDLRip | OZZ

184 | 51

2.99 ГБ

В этой теме нет новых непрочитанных сообщений. Другое лицо (2008) DVDRip

22 | 60

1.37 ГБ

В этой теме нет новых непрочитанных сообщений. Другое небо (2003) SATRip от AND03AND

30 | 4

315.34 МБ




Вы не можете начинать темы
Вы не можете отвечать на сообщения
Вы не можете редактировать свои сообщения
Вы не можете удалять свои сообщения
Вы не можете добавлять вложения

Перейти:  
Для Мосгорсуда, Роскомнадзора и рекламодателей: mosgorsud-torrent[собачка]yandex.ru
 Вход
ppkBB3cker v.2 © 2008-2014 @ PPK
[ Time : 0.028s | 15 Queries | GZIP : Off ]

Торрент трекер RUTOR.IN, Не можете зайти на rutor.org? Какой новый адрес рутор? Какое зеркало рутор? Не работает rutor.org и зеркала? Тогда наш торрент специально для вас. Rutor.in неофициальное зеркало rutor. В случае если у Вас заблокирован rutor или вдруг Вы не можете на него зайти, то Вы без труда сможете скачать бесплатно и без рекламы последние новинки кино, игр, сериалов и прочего у нас, на Rutor.in. Не нужно использовать прокси, чтобы зайти на рутор, достаточно воспользоваться нашим ресурсом. Все новые фильмы, игры, сериалы, книги и музыка за 2013 и 2014 годы через торрент бесплатно. Скачивайте фильмы в хорошем качестве, игры для пк, xbox, playstation без регистрации. У нас вы найдете новые Зарубежные сериалы и Русские сериалы 2013, 2014, 2015 годов. Оставайтесь с нами, качайте любимые фильмы, игры, сериалы, книги и музыку.